Чёрный треугольник (3 серии) (Сергей Тарасов) [1981, Детектив, историко-революционный, SATRip]

Ответить на тему
 
Автор Сообщение

user ®

Стаж: 8 лет 7 месяцев

Сообщений: 20007

Пост Пост: #1 от 06-Июн-2015 21:06

[Цитировать]

Чёрный треугольник (3 серии)
Жанр: Детектив, историко-революционный
Страна: СССР
Студия: Мосфильм (по заказу Комитета по радиовещанию и телевидению Гостелерадио СССР)
Год выпуска: 1981
Продолжительность: 03:13:20 = 01:03:04 + 01:04:07 + 01:06:08
Режиссёр: Сергей Тарасов
В ролях: Константин Григорьев, Анатолий Ромашин, Жанна Болотова, Ольга Барнет, Леонид Кулагин, Альгимантас Масюлис, Борис Химичев, Юрий Смирнов, Виктор Чеботарёв, Алексей Миронов, Борис Хмельницкий, Всеволод Сафонов, Николай Дупак, Антанина Мацкявичюте, Юрий Дубровин, Михаил Погоржельский, Леонид Марков, Семён Соколовский, Геннадий Юхтин, Яна Друзь и другие
Описание: По одноимённому детективному произведению Юрия Кларова.
Временное правительство выпустило из тюрем всех уголовников, элиту преступного мира Российской империи. В январе 1918 года происходит одно из самых громких преступлений первых лет Революции - ограбление Патриаршей ризницы Московского Кремля. Следствие ведет группа недавно созданного МУРа во главе с Леонидом Косачевским …
Дополнительная информация: Релиз:
Автор рипа: pmv
Большое спасибо за:
- Исходник DVB ([url=http://***/forum/viewtopic.php?t=4763007]http://***/forum/viewtopic.php?t=4763007[/url]) - Cheef mate
(Запись потока *.ts со спутника INTELSAT 904, 60° в.д. c ТК "100 ТВ".)
IMDb = 7,3/10 from 15 users - http://www.imdb.com/title/tt0238767/
Кинопоиск = 7.128 (92) - http://www.kinopoisk.ru/film/94437
Размер всех 3-х серий: 2.193 Gb = 739 Mb + 728 Mb + 726 Mb
Продолжительность: 03:13:20.358 = 01:03:04.399 (94610 frames) + 01:04:07.280 (96182 frames) + 01:06:08.679 (99217 frames)
ПРОСЬБА к СКАЧАВШИМ. НЕ УХОДИТЕ С РАЗДАЧИ, ПОМОГИТЕ ДРУГИМ СКАЧАТЬ!!!
Качество видео: SATRip
Формат видео: AVI
Видео: 720x528 (1.36:1), 25 fps, XviD build 73 ~1500 kbps avg, 0.16 bit/pixel
Аудио: 48 kHz, MPEG Layer 3, 2 ch, ~128.00 kbps avg
Сэмпл MediaInfo
1 серия
General
Complete name : D:\torrents\Черный-треугольник-3-серии-1981\Чёрный треугольник (1981, 1сер).avi
Format : AVI
Format/Info : Audio Video Interleave
File size : 739 MiB
Duration : 1h 3mn
Overall bit rate : 1 637 Kbps
Writing library : VirtualDub build 35576/release
Video
ID : 0
Format : MPEG-4 Visual
Format profile : Advanced Simple@L5
Format settings, BVOP : Yes
Format settings, QPel : No
Format settings, GMC : No warppoints
Format settings, Matrix : Default (H.263)
Codec ID : XVID
Codec ID/Hint : XviD
Duration : 1h 3mn
Bit rate : 1 500 Kbps
Width : 720 pixels
Height : 528 pixels
Display aspect ratio : 4:3
Frame rate : 25.000 fps
Resolution : 8 bits
Colorimetry : 4:2:0
Scan type : Progressive
Bits/(Pixel*Frame) : 0.158
Stream size : 677 MiB (92%)
Writing library : XviD 73
Audio
ID : 1
Format : MPEG Audio
Format version : Version 1
Format profile : Layer 3
Format_Settings_Mode : Joint stereo
Codec ID : 55
Codec ID/Hint : MP3
Duration : 1h 3mn
Bit rate mode : Constant
Bit rate : 128 Kbps
Channel(s) : 2 channels
Sampling rate : 48.0 KHz
Stream size : 57.7 MiB (8%)
Alignment : Split accross interleaves
Interleave, duration : 40 ms (1.00 video frame)
Interleave, preload duration : 500 ms
2 серия
General
Complete name : D:\torrents\Черный-треугольник-3-серии-1981\Чёрный треугольник (1981, 2сер).avi
Format : AVI
Format/Info : Audio Video Interleave
File size : 728 MiB
Duration : 1h 4mn
Overall bit rate : 1 587 Kbps
Writing library : VirtualDub build 35576/release
Video
ID : 0
Format : MPEG-4 Visual
Format profile : Advanced Simple@L5
Format settings, BVOP : Yes
Format settings, QPel : No
Format settings, GMC : No warppoints
Format settings, Matrix : Default (H.263)
Codec ID : XVID
Codec ID/Hint : XviD
Duration : 1h 4mn
Bit rate : 1 450 Kbps
Width : 720 pixels
Height : 528 pixels
Display aspect ratio : 4:3
Frame rate : 25.000 fps
Resolution : 8 bits
Colorimetry : 4:2:0
Scan type : Progressive
Bits/(Pixel*Frame) : 0.153
Stream size : 665 MiB (91%)
Writing library : XviD 73
Audio
ID : 1
Format : MPEG Audio
Format version : Version 1
Format profile : Layer 3
Format_Settings_Mode : Joint stereo
Codec ID : 55
Codec ID/Hint : MP3
Duration : 1h 4mn
Bit rate mode : Constant
Bit rate : 128 Kbps
Channel(s) : 2 channels
Sampling rate : 48.0 KHz
Stream size : 58.7 MiB (8%)
Alignment : Split accross interleaves
Interleave, duration : 40 ms (1.00 video frame)
Interleave, preload duration : 500 ms
3 серия
General
Complete name : D:\torrents\Черный-треугольник-3-серии-1981\Чёрный треугольник (1981, 3сер).avi
Format : AVI
Format/Info : Audio Video Interleave
File size : 726 MiB
Duration : 1h 6mn
Overall bit rate : 1 534 Kbps
Writing library : VirtualDub build 35576/release
Video
ID : 0
Format : MPEG-4 Visual
Format profile : Advanced Simple@L5
Format settings, BVOP : Yes
Format settings, QPel : No
Format settings, GMC : No warppoints
Format settings, Matrix : Default (H.263)
Codec ID : XVID
Codec ID/Hint : XviD
Duration : 1h 6mn
Bit rate : 1 397 Kbps
Width : 720 pixels
Height : 528 pixels
Display aspect ratio : 4:3
Frame rate : 25.000 fps
Resolution : 8 bits
Colorimetry : 4:2:0
Scan type : Progressive
Bits/(Pixel*Frame) : 0.147
Stream size : 661 MiB (91%)
Writing library : XviD 73
Audio
ID : 1
Format : MPEG Audio
Format version : Version 1
Format profile : Layer 3
Format_Settings_Mode : Joint stereo
Codec ID : 55
Codec ID/Hint : MP3
Duration : 1h 6mn
Bit rate mode : Constant
Bit rate : 128 Kbps
Channel(s) : 2 channels
Sampling rate : 48.0 KHz
Stream size : 60.6 MiB (8%)
Alignment : Split accross interleaves
Interleave, duration : 40 ms (1.00 video frame)
Interleave, preload duration : 500 ms
Скриншот c названием фильма Скриншоты Сравнение с раздачей Belyakin от 19-Февраля-2010
Belyakin, DVDRip, 720 x 572, 1.95 Gb < > CaCa48, SATRip, 720 х 528, 2.19 Gb
[url=http://***/forum/viewtopic.php?t=2768915]http://***/forum/viewtopic.php?t=2768915[/url]
http://screenshotcomparison.com/comparison/130230
МОИ РАЗДАЧИ НА РУТРЕКЕРЕ: [url=http://***/forum/tracker.php?rid=27390064]http://***/forum/tracker.php?rid=27390064[/url]
Скачать

Скачать торрент!

Как скачивать? · Что такое торрент? · Рейтинг и ограничения

Сайт не распространяет и не хранит электронные версии произведений, а лишь предоставляет доступ к создаваемому пользователями каталогу ссылок на торрент-файлы, которые содержат только списки хеш-сумм

[Профиль] [ЛС]
Показать сообщения:    
Ответить на тему

Текущее время: Сегодня 12:35

Часовой пояс: GMT + 4



Вы не можете начинать темы
Вы не можете отвечать на сообщения
Вы не можете редактировать свои сообщения
Вы не можете удалять свои сообщения
Вы не можете голосовать в опросах
Вы не можете прикреплять файлы к сообщениям
Вы не можете скачивать файлы