Великий гипнотизер / The Great Hypnotist / Cui mian da shi (Лэсте Чэнь / Leste Chen) [2014, Китай, триллер, драма, детектив, HDRip] VO (Н. Пушкарёва) + original Chin + Sub (rus, eng)

Ответить на тему
 
Автор Сообщение

user ®

Стаж: 13 лет

Сообщений: 15071

Пост Пост: #1 от 06-Июн-2015 18:00

[Цитировать]

Великий гипнотизер / The Great Hypnotist / Cui mian da shi- -Страна: Китай
Жанр: триллер, драма, детектив
Год выпуска: 2014
Продолжительность: 01:41:29-Перевод: Одноголосый закадровый (Н. Пушкарёва) по переводу: julz_nsk-Cубтитры: русские (2 вида)[(julz_nsk, hentai) английские [отдельно]
Оригинальная аудиодорожка: китайский
Режиссер: Лэсте Чэнь / Leste Chen
В ролях: Джин Ху, Жонг Люй, Карен Мок, Яоцин Ван, Сюй Чжэн
Описание: История об известном психологе с блестящей карьерой. Однажды он сталкивается с проблемным пациентом, встречи с которым даются ему непросто…
Релиз от -
Сэмпл: http://multi-up.com/1052327
Качество видео: HDRip
Формат видео: AVI
Видео: MPEG-4 Visual at 2391 Кбит/сек; 720 x 304 (2.368) at 24.000 fps
Аудио: AC-3 at 192 Кбит/сек; 2 канала, 48,0 КГц [VO]
Аудио: AC-3 at 448 Кбит/сек; 6 каналов, 48,0 КГц [Chin]
Автор -
MediaInfo
Общее
Полное имя : D:\Фильмы\Азиатские\Великий гипнотизер\The Great Hypnotist.2014.HDRip.XviD.2200MB. rip by [Asssassin's Creed]\The Great Hypnotist.2014.HDRip.XviD.2200MB. rip by [Asssassin's Creed].avi
Формат : AVI
Формат/Информация : Audio Video Interleave
Профиль формата : OpenDML
Размер файла : 2,16 Гбайт
Продолжительность : 1 ч. 41 м.
Общий поток : 3049 Кбит/сек
Программа кодирования : VirtualDubMod 1.5.10.3 | www.virtualdub-fr.org || (build 2550/release)
Библиотека кодирования : VirtualDubMod build 2550/release
Видео
Идентификатор : 0
Формат : MPEG-4 Visual
Профиль формата : Advanced Simple@L5
Параметр BVOP формата : 1
Параметр QPel формата : Нет
Параметр GMC формата : Без точки перехода
Параметр матрицы формата : Default (MPEG)
Идентификатор кодека : XVID
Идентификатор кодека/Подсказка : XviD
Продолжительность : 1 ч. 41 м.
Битрейт : 2391 Кбит/сек
Ширина : 720 пикселей
Высота : 304 пикселя
Соотношение сторон : 2,35:1
Частота кадров : 24,000 кадра/сек
Цветовое пространство : YUV
Субдискретизация насыщенности : 4:2:0
Битовая глубина : 8 бит
Тип развёртки : Прогрессивная
Метод сжатия : С потерями
Бит/(Пиксели*Кадры) : 0.455
Размер потока : 1,70 Гбайт (78%)
Библиотека кодирования : XviD 1.2.1 (UTC 2008-12-04)
Аудио #1
Идентификатор : 1
Формат : AC-3
Формат/Информация : Audio Coding 3
Расширение режима : CM (complete main)
Параметр Endianness формата : Big
Идентификатор кодека : 2000
Продолжительность : 1 ч. 41 м.
Вид битрейта : Постоянный
Битрейт : 192 Кбит/сек
Каналы : 2 канала
Расположение каналов : Front: L R
Частота : 48,0 КГц
Битовая глубина : 16 бит
Метод сжатия : С потерями
Размер потока : 139 Мбайт (6%)
Выравнивание : Разделение по промежуткам
Продолжительность промежутка : 42 мс. (1,00 видеокадр)
Время предзагрузки промежутка : 500 мс.
Аудио #2
Идентификатор : 2
Формат : AC-3
Формат/Информация : Audio Coding 3
Расширение режима : CM (complete main)
Параметр Endianness формата : Big
Идентификатор кодека : 2000
Продолжительность : 1 ч. 41 м.
Вид битрейта : Постоянный
Битрейт : 448 Кбит/сек
Каналы : 6 каналов
Расположение каналов : Front: L C R, Side: L R, LFE
Частота : 48,0 КГц
Битовая глубина : 16 бит
Метод сжатия : С потерями
Размер потока : 325 Мбайт (15%)
Выравнивание : Разделение по промежуткам
Продолжительность промежутка : 42 мс. (1,00 видеокадр)
Время предзагрузки промежутка : 500 мс.
Общее
Полное имя : D:\Фильмы\Азиатские\Великий гипнотизер\The Great Hypnotist.2014.HDRip.XviD.2200MB. rip by [Asssassin's Creed]\The Great Hypnotist.2014.HDRip.XviD.2200MB. rip by [Asssassin's Creed].eng.srt
Формат : SubRip
Размер файла : 76,0 Кбайт
Текст
Формат : SubRip
Метод сжатия : Без потерь
Общее
Полное имя : D:\Фильмы\Азиатские\Великий гипнотизер\The Great Hypnotist.2014.HDRip.XviD.2200MB. rip by [Asssassin's Creed]\The Great Hypnotist.2014.HDRip.XviD.2200MB. rip by [Asssassin's Creed].rus.(hentai).ass
Размер файла : 115 Кбайт
Общее
Полное имя : D:\Фильмы\Азиатские\Великий гипнотизер\The Great Hypnotist.2014.HDRip.XviD.2200MB. rip by [Asssassin's Creed]\The Great Hypnotist.2014.HDRip.XviD.2200MB. rip by [Asssassin's Creed].rus.srt
Формат : SubRip
Размер файла : 81,1 Кбайт
Текст
Формат : SubRip
Метод сжатия : Без потерь
Скриншот c названием фильма Скриншоты
Скачать

Скачать торрент! Великий гипнотизер / The Great Hypnotist / Cui mian da shi (Лэсте Чэнь / Leste Chen) [2014, Китай, триллер, драма, детектив, HDRip] VO (Н. Пушкарёва) + original Chin + Sub (rus, eng)

Как скачивать? · Что такое торрент? · Рейтинг и ограничения

Сайт не распространяет и не хранит электронные версии произведений, а лишь предоставляет доступ к создаваемому пользователями каталогу ссылок на торрент-файлы, которые содержат только списки хеш-сумм

[Профиль] [ЛС]
Показать сообщения:    
Ответить на тему

Текущее время: Сегодня 20:34

Часовой пояс: GMT + 4



Вы не можете начинать темы
Вы не можете отвечать на сообщения
Вы не можете редактировать свои сообщения
Вы не можете удалять свои сообщения
Вы не можете голосовать в опросах
Вы не можете прикреплять файлы к сообщениям
Вы не можете скачивать файлы