Про Фому и про Ерёму (Юрий Прытков) [1984 г., мультфильм, DVB]

Ответить на тему
 
Автор Сообщение

user ®

Стаж: 7 лет 7 месяцев

Сообщений: 20008

Пост Пост: #1 от 05-Июн-2015 23:21

[Цитировать]

Про Фому и про Ерёму
Страна: СССР, Союзмультфильм
Жанр: мультфильм
Год выпуска: 1984
Продолжительность: 00:08:56
Режиссёр: Юрий Прытков
Описание: мультфильм о том как жили-были Фома и Ерема и надоело им сидеть дома, решили они на работу пойти, но не клеится у них ничего, как вспахали, так посеяли и так же ничего и не взошло. Опять сидят братья дома и снова им скучно стало, пошли они на охоту, но охотились не они, а на них. Потом на рыбалку, где, Фома поймал сапог, а Ерема неведома что. А потом на рынок, где пока они ворон ловили, им мешочки подменили. И подумали Фома и Емеля, лучше дома сидеть и людей не смешить!
Доп. информация: мультфильм по народным шуткам-прибауткам

Релиз группы:
Трансляция спутникового канала:

Качество видео: DVB
Формат видео: MPEG-PS
Видео: MPEG2 Video, 720x576 (4:3), 25 fps, 3700 kbps
Аудио: MPEG Audiо, 2 сh, 48 kHz, 192 kbps
Сравнение
[url=http://***/forum/viewtopic.php?t=610695]http://***/forum/viewtopic.php?t=610695[/url]
http://screenshotcomparison.com/comparison/130076
[url=http://***/forum/viewtopic.php?t=612664]http://***/forum/viewtopic.php?t=612664[/url]
http://screenshotcomparison.com/comparison/130077
MediaInfo
General
Complete name : D:\Про Фому и про Ерёму. (1984)_DVB by SLuMeP.mpg
Format : MPEG-PS
File size : 252 MiB
Duration : 8mn 56s
Overall bit rate mode : Variable
Overall bit rate : 3 939 Kbps
Video
ID : 224 (0xE0)
Format : MPEG Video
Format version : Version 2
Format profile : Main@Main
Format settings, BVOP : Yes
Format settings, Matrix : Custom
Format settings, GOP : M=3, N=12
Format settings, picture st : Frame
Duration : 8mn 56s
Bit rate mode : Variable
Bit rate : 3 668 Kbps
Maximum bit rate : 5 000 Kbps
Width : 720 pixels
Height : 576 pixels
Display aspect ratio : 4:3
Frame rate : 25.000 fps
Standard : PAL
Color space : YUV
Chroma subsampling : 4:2:0
Bit depth : 8 bits
Scan type : Interlaced
Scan order : Top Field First
Compression mode : Lossy
Bits/(Pixel*Frame) : 0.354
Time code of first frame : 00:00:00:00
Time code source : Group of pictures header
GOP, Open/Closed : Open
Stream size : 235 MiB (93%)
GOP, Open/Closed of first f : Closed
Audio
ID : 192 (0xC0)
Format : MPEG Audio
Format version : Version 1
Format profile : Layer 2
Duration : 8mn 56s
Bit rate mode : Constant
Bit rate : 192 Kbps
Channel(s) : 2 channels
Sampling rate : 48.0 KHz
Compression mode : Lossy
Stream size : 12.3 MiB (5%)
Скриншоты
Скачать

Скачать торрент!

Как скачивать? · Что такое торрент? · Рейтинг и ограничения

Сайт не распространяет и не хранит электронные версии произведений, а лишь предоставляет доступ к создаваемому пользователями каталогу ссылок на торрент-файлы, которые содержат только списки хеш-сумм

[Профиль] [ЛС]
Показать сообщения:    
Ответить на тему

Текущее время: Сегодня 18:24

Часовой пояс: GMT + 4



Вы не можете начинать темы
Вы не можете отвечать на сообщения
Вы не можете редактировать свои сообщения
Вы не можете удалять свои сообщения
Вы не можете голосовать в опросах
Вы не можете прикреплять файлы к сообщениям
Вы не можете скачивать файлы