Мозаика (Инструкция к игре) (Валерий Врублевский) [1989, комбинированный мультфильм, DVDRip]

Ответить на тему
 
Автор Сообщение

user ®

Стаж: 7 лет 7 месяцев

Сообщений: 20008

Пост Пост: #1 от 05-Июн-2015 23:21

[Цитировать]

Мозаика (Инструкция к игре)
Страна: CCCР
Жанр: комбинированный мультфильм
Продолжительность: 00:07:34
Год выпуска: 1989
Русские субтитры: нет
Режиссёр: Валерий Врублевский
Описание: На сетчатую основу высыпаются детали мозаики. Из деталей составляются различные фигуры. Фигуры начинают двигаться, окружать друг друга и менять форму и цвет. В конце концов детальки образуют разноцветный шар, который начинает вращаться. И вдруг оказывается, что это планета, улетающая вглубь космоса. А на чистое поле вновь высыпаются детальки: что сможешь собрать из них ты — зритель?
Доп. информация: «Киевнаучфильм»
сценарист В. Врублевский
художник-постановщик Л. Балаклав
аниматоры Н. Котюжан, В. Врублевский
оператор Александр Мухин
директор Иван Мазепа
композитор А. Спаринский
звукорежиссер И. Мойжес
редактор Евгений Назаренко
монтажер Ю. Сребницкая
Раздача группы:
Качество: DVDRip
Формат: AVI
Видео: 704x528 (1.33:1), 25 fps, XviD MPEG-4 ~1655 kbps avg, 0.18 bit/pixel
Аудио: 48 kHz, AC3 Dolby Digital, 2/0 (L,R) ch, ~192.00 kbps avg
Субтитры: нет
Подробные технические данные
Format : AVIFormat/Info : Audio Video InterleaveFile size : 100 MiBDuration : 7mn 34sOverall bit rate : 1 853 Kbps
VideoID : 0Format : MPEG-4 VisualFormat profile : Advanced Simple@L5Format settings, BVOP : 2Format settings, QPel : NoFormat settings, GMC : No warppointsFormat settings, Matrix : Default (H.263)Muxing mode : Packed bitstreamCodec ID : XVIDCodec ID/Hint : XviDDuration : 7mn 34sBit rate : 1 655 KbpsWidth : 704 pixelsHeight : 528 pixelsDisplay aspect ratio : 4:3Frame rate : 25.000 fpsColor space : YUVChroma subsampling : 4:2:0Bit depth : 8 bitsScan type : ProgressiveCompression mode : LossyBits/(Pixel*Frame) : 0.178Stream size : 89.6 MiB (89%)Writing library : XviD 1.2.1 (UTC 2008-12-04)
AudioID : 1Format : AC-3Format/Info : Audio Coding 3Mode extension : CM (complete main)Format settings, Endianness : BigCodec ID : 2000Duration : 7mn 34sBit rate mode : ConstantBit rate : 192 KbpsChannel(s) : 2 channelsChannel positions : Front: L RSampling rate : 48.0 KHzBit depth : 16 bitsCompression mode : LossyStream size : 10.4 MiB (10%)Alignment : Aligned on interleavesInterleave, duration : 200 ms (5.00 video frames)
сравнение
Сравнение с [url=http://***/forum/viewtopic.php?t=2268647]http://***/forum/viewtopic.php?t=2268647[/url]
Тут -- http://screenshotcomparison.com/comparison/130087/picture:0
интересные факты
• Сцена с планетой пародирует сцену со «Всем белым светом» из мультфильма «Кошка, которая гуляла сама по себе».
• Сцена с черно-желтым шариком пародирует логотип «Adidas»
• В мультфильме не произносится ни одного слова, звучит лишь музыка.
Скриншоты
Скачать

Скачать торрент!

Как скачивать? · Что такое торрент? · Рейтинг и ограничения

Сайт не распространяет и не хранит электронные версии произведений, а лишь предоставляет доступ к создаваемому пользователями каталогу ссылок на торрент-файлы, которые содержат только списки хеш-сумм

[Профиль] [ЛС]
Показать сообщения:    
Ответить на тему

Текущее время: Сегодня 06:02

Часовой пояс: GMT + 4



Вы не можете начинать темы
Вы не можете отвечать на сообщения
Вы не можете редактировать свои сообщения
Вы не можете удалять свои сообщения
Вы не можете голосовать в опросах
Вы не можете прикреплять файлы к сообщениям
Вы не можете скачивать файлы