Космос как предчувствие (Алексей Учитель) [2005, Драма, DVDRip]

Ответить на тему
 
Автор Сообщение

user ®

Стаж: 7 лет 7 месяцев

Сообщений: 20008

Пост Пост: #1 от 05-Июн-2015 23:21

[Цитировать]

Космос как предчувствие
Жанр: Драма
Год выпуска: 2005
Продолжительность: 01:26:29
Режиссёр: Алексей Учитель
В ролях: Евгений Миронов, Евгений Цыганов, Ирина Пегова, Дмитрий Муляр, Елена Лядова, Сергей Качанов, Мария Кузнецова, Игорь Шибанов, Елена Галибина, Константин Шелестун
Описание: 57-й год. Время надежд и искренней веры в то, что светлое будущее непременно наступит. Советский спутник посылает звонкие сигналы, говоря миру – мы здесь, мы шагнем еще дальше и выше. На Земле, в северном портовом городе, за движением спутника восхищенно следят сияющие глаза Конька и Лары – простодушного ресторанного повара и его подружки-официантки. Течение их нехитрого романа нарушает появление таинственного незнакомца, который точно знает – из этой страны нельзя убежать, из нее можно только улететь. Или уплыть… А вокруг течет жизнь приграничного портового города. Громады иностранных кораблей приносят сюда незнакомые звуки, вкусы и запахи – пугающие и манящие. И страшно подумать советскому человеку, что где-то есть другая жизнь и другая свобода.
Сэмпл: https://www.sendspace.com/file/gi93d2
Качество видео: DVDRip
Формат видео: AVI
Видео: 640x384 (1.67:1), XviD 1.1 beta 2 (build 39), 25 fps, 964 kbps avg
Аудио: Русский, mp3, 48 kHz, 160 kbps, 2 ch
MediaInfo
D:\Мои документы\Моё видео\Фильмы\Космос как предчувствие.avi
General
Complete name : D:\Мои документы\Моё видео\Фильмы\Космос как предчувствие.avi
Format : AVI
Format/Info : Audio Video Interleave
File size : 700 MiB
Duration : 1h 26mn
Overall bit rate : 1 131 Kbps
Writing application : VirtualDubMod 1.5.4.1 (build 2178/release)
Writing library : VirtualDubMod build 2178/release
Video #0
ID : 0
Format : MPEG-4 Visual
Format profile : Advanced Simple@L5
Format settings, BVOP : Yes
Format settings, QPel : No
Format settings, GMC : No warppoints
Format settings, Matrix : Custom
Codec ID : XVID
Codec ID/Hint : XviD
Duration : 1h 26mn
Bit rate : 964 Kbps
Width : 640 pixels
Height : 384 pixels
Display aspect ratio : 1.667
Frame rate : 25.000 fps
Color space : YUV
Chroma subsampling : 4:2:0
Bit depth : 8 bits
Scan type : Progressive
Compression mode : Lossy
Bits/(Pixel*Frame) : 0.157
Stream size : 596 MiB (85%)
Writing library : XviD 1.1.0 Beta2 (UTC 2005-04-04)
Audio #1
ID : 1
Format : MPEG Audio
Format version : Version 1
Format profile : Layer 3
Mode : Joint stereo
Mode extension : MS Stereo
Codec ID : 55
Codec ID/Hint : MP3
Duration : 1h 26mn
Bit rate mode : Constant
Bit rate : 160 Kbps
Channel(s) : 2 channels
Sampling rate : 48.0 KHz
Compression mode : Lossy
Stream size : 99.0 MiB (14%)
Alignment : Aligned on interleaves
Interleave, duration : 80 ms (2.00 video frames)
Interleave, preload duration : 504 ms
Writing library : LAME3.96r
Encoding settings : -m j -V 4 -q 2 -lowpass 18 -b 160
Language : Russian
Скриншот c названием фильма Скриншоты Сравнение
Конкурирую с админом.)))
[url=http://***/forum/viewtopic.php?t=4783636]http://***/forum/viewtopic.php?t=4783636[/url]
http://screenshotcomparison.com/comparison/130097
Скачать

Скачать торрент!

Как скачивать? · Что такое торрент? · Рейтинг и ограничения

Сайт не распространяет и не хранит электронные версии произведений, а лишь предоставляет доступ к создаваемому пользователями каталогу ссылок на торрент-файлы, которые содержат только списки хеш-сумм

[Профиль] [ЛС]
Показать сообщения:    
Ответить на тему

Текущее время: Сегодня 16:44

Часовой пояс: GMT + 4



Вы не можете начинать темы
Вы не можете отвечать на сообщения
Вы не можете редактировать свои сообщения
Вы не можете удалять свои сообщения
Вы не можете голосовать в опросах
Вы не можете прикреплять файлы к сообщениям
Вы не можете скачивать файлы