Ночной поезд / Night Train / Yogisha (Косаку Ямасьта / Kosaku Yamashita) [1987, Япония, драма, DVDRip] Sub

Ответить на тему
 
Автор Сообщение

user ®

Стаж: 13 лет

Сообщений: 15071

Пост Пост: #1 от 05-Июн-2015 20:15

[Цитировать]

Ночной поезд / Night Train / Yogisha / 夜汽車
Страна: Япония
Жанр: драма
Год выпуска: 1987
Продолжительность: 02:17:20
Перевод 1: Субтитры русские - [url=http://***/forum/tracker.php?rid=6473541]дед_сто_лет[/url]©
Перевод 2: Субтитры английские
Оригинальная аудиодорожка: японский
Режиссер: [url=http://***/forum/tracker.php?nm=Kosaku%20Yamashita]Косаку ЯМАСЬТА / Kosaku Yamashita[/url]
В ролях: Юкиё ТОАКЭ, Кумико АКИЁСИ, Тецуро ТАМБА, [url=http://***/forum/viewtopic.php?p=49417573#49417573]Масахико ЦУГАВА[/url], Хисако МАНДА, [url=http://***/forum/viewtopic.php?t=4506594]Кэнъити ХАГИВАРА[/url]
Описание: Гейша Сомэю потеряла отца и мать маленькой девочкой. Её разлучили с младшей сестрой, но она зарабатывала деньги на её содержание. Она думала, что сможет отказаться от собственного счастья ради благополучия сестры, но мужчина, которого она встретила в поезде, изменил судьбу каждой из сестер.©
Женщина, мужчина и поезд - этот лейтмотив звучит во многих японских фильмах:
[url=http://***/forum/viewtopic.php?t=4867090]Станция "Небecа" / Heaven Station / Tengoku no eki - 1984[/url]
[url=http://***/forum/viewtopic.php?t=4506594]Обещание / Yakusoku / 約束- 1972[/url]
> > > > > > >
Качество видео: DVDRip
Формат видео: AVI
Видео: 704x400 (1.76:1), 23.976 fps, XviD build 50 ~1268 kbps avg, 0.19 bit/pixel
Аудио: 48 kHz, MPEG Layer 3, 2 ch, ~192.00 kbps avg
Формат субтитров: softsub (SRT)
Доп. информация о субтитрах: дед_сто_лет
Пример субтитров
438
00:59:25,662 --> 00:59:27,632
Я давно вас всех не видела.
439
00:59:30,666 --> 00:59:36,106
Президент, сегодня
с нами лучшие гейши Коти.
440
00:59:36,666 --> 00:59:44,187
Они отличаются от
современных девушек Токио?
441
00:59:45,849 --> 00:59:49,000
В Токио женщины самовлюбленные.
442
00:59:49,219 --> 00:59:51,096
Мне они не нравятся.
443
00:59:53,223 --> 00:59:59,263
В женщине должна быть страстность.
444
01:00:01,098 --> 01:00:03,874
Говорят, что в Тоса женщины
очень страстные.
445
01:00:04,835 --> 01:00:08,009
Они также красивы и артистичны.
446
01:00:09,873 --> 01:00:11,477
Не хотите посмотреть её танец?
447
01:00:23,353 --> 01:00:24,559
Сомэю!
448
01:00:39,703 --> 01:00:45,407
Хозяйка, я как будто видел её прежде.
449
01:00:45,742 --> 01:00:48,430
Вы все ещё помните её!
450
01:00:49,279 --> 01:00:53,591
Когда вы были нашим
патроном до отъезда в Токио...
451
01:00:53,617 --> 01:00:56,120
... она ещё была ученицей.
452
01:00:56,920 --> 01:01:00,097
Вы были её первым клиентом.
453
01:01:00,457 --> 01:01:01,663
Теперь я вспомнил.
454
01:01:02,559 --> 01:01:04,600
Когда она подавала мне сакэ,
у неё дрожали руки.
455
01:01:04,628 --> 01:01:06,232
Она пролила сакэ мне на колени.
456
01:01:07,965 --> 01:01:10,129
Она умела бороться на руках.
457
01:01:10,267 --> 01:01:13,095
Она хвалилась, что сильна, как рыбачка.
458
01:01:13,470 --> 01:01:17,305
Но вы легко победили её в борьбе.
459
01:01:17,941 --> 01:01:19,682
Она так расстроилась!
460
01:01:20,844 --> 01:01:22,824
У неё всегда была сильная воля.
461
01:01:24,214 --> 01:01:27,787
И она всегда была
прекрасным исполнителем.
462
01:01:29,853 --> 01:01:32,038
Значит это та самая девочка...
463
01:01:52,342 --> 01:01:55,516
Она строит из себя бог знает кого,
потому что она лучшая в танцах!
464
01:01:56,413 --> 01:02:01,548
В её возрасте она должна
держаться в тени.
465
01:02:01,918 --> 01:02:06,663
А она все рвется выступать.
466
01:02:07,324 --> 01:02:10,134
Потому-то сестра и увела
у неё любимого мужчину.
467
01:02:11,194 --> 01:02:12,832
Кровь видимо ударила ей в голову.
468
01:02:13,111 --> 01:02:15,301
Как это неприятно для нас!
MediaInfo
General
Complete name : C:\...\Night.Train(1987)Kosaku.Yamashita\Night.Train(1987)Kosaku.Yamashita.avi
Format : AVI
Format/Info : Audio Video Interleave
File size : 1.41 GiB
Duration : 2h 17mn
Overall bit rate : 1 470 Kbps
Video
ID : 0
Format : MPEG-4 Visual
Format profile : Advanced Simple@L5
Format settings, BVOP : 1
Format settings, QPel : No
Format settings, GMC : No warppoints
Format settings, Matrix : Custom
Codec ID : XVID
Codec ID/Hint : XviD
Duration : 2h 17mn
Bit rate : 1 269 Kbps
Width : 704 pixels
Height : 400 pixels
Display aspect ratio : 16:9
Frame rate : 23.976 fps
Color space : YUV
Chroma subsampling : 4:2:0
Bit depth : 8 bits
Scan type : Progressive
Compression mode : Lossy
Bits/(Pixel*Frame) : 0.188
Stream size : 1.22 GiB (86%)
Writing library : XviD 1.2.1 (UTC 2008-12-04)
Audio
ID : 1
Format : MPEG Audio
Format version : Version 1
Format profile : Layer 3
Mode : Joint stereo
Mode extension : MS Stereo
Codec ID : 55
Codec ID/Hint : MP3
Duration : 2h 17mn
Bit rate mode : Constant
Bit rate : 192 Kbps
Channel(s) : 2 channels
Sampling rate : 48.0 KHz
Compression mode : Lossy
Stream size : 189 MiB (13%)
Alignment : Aligned on interleaves
Interleave, duration : 42 ms (1.00 video frame)
Writing library : LAME3.98r
Encoding settings : -m j -V 4 -q 2 -lowpass 18.6 -b 192
Скриншот c названием фильма Скриншоты
Скачать

Скачать торрент! Ночной поезд / Night Train / Yogisha (Косаку Ямасьта / Kosaku Yamashita) [1987, Япония, драма, DVDRip] Sub

Как скачивать? · Что такое торрент? · Рейтинг и ограничения

Сайт не распространяет и не хранит электронные версии произведений, а лишь предоставляет доступ к создаваемому пользователями каталогу ссылок на торрент-файлы, которые содержат только списки хеш-сумм

[Профиль] [ЛС]
Показать сообщения:    
Ответить на тему

Текущее время: Сегодня 17:43

Часовой пояс: GMT + 4



Вы не можете начинать темы
Вы не можете отвечать на сообщения
Вы не можете редактировать свои сообщения
Вы не можете удалять свои сообщения
Вы не можете голосовать в опросах
Вы не можете прикреплять файлы к сообщениям
Вы не можете скачивать файлы