Живой (Александр Велединский) [2006, Драма, DVDRip]

Ответить на тему
 
Автор Сообщение

user ®

Стаж: 7 лет 7 месяцев

Сообщений: 20008

Пост Пост: #1 от 05-Июн-2015 17:09

[Цитировать]

Живой
Жанр: Драма
Год выпуска: 2006
Продолжительность: 01:32:13
Режиссёр: Александр Велединский
В ролях: Ольга Арнтгольц, Алексей Чадов, Андрей Чадов, Максим Лагашкин, Александр Робак, Виктория Смирнова, Екатерина Волкова, Владимир Епифанцев, Алексей Горбунов, Нелли Неведина
Описание: Кир – вернувшийся с чеченской войны солдат. Там, на войне он оставил полноги, и всех своих друзей-сослуживцев. Они спасли его ценой собственных жизней. Здесь Кира ждет мать и любимая девушка. Казалось, что та война для него окончилась, но эхо войны все еще не покидает голову парня. Пытаясь наладить жизнь, он не может избавиться от чувства вины. Призраки его погибших друзей ходят за ним по пятам. Что он должен сделать, чтобы они нашли покой? Может быть, ему просто стоит простить себя?
Доп. информация: Продюсер: Алексей Алякин, Сергей Члиянц, Вадим Горяинов
Сценарий: Игорь Порублев, Александр Велединский
Оператор: Павел Игнатов
Композитор: Алексей Зубарев
Сэмпл: http://sendfile.su/1125361
Качество видео: DVDRip
Формат видео: AVI
Видео: 640x336 (1.90:1), XviD build 3, 25 fps, 1733 kbps avg
Аудио: Русский, AC3 Dolby Digital, 48 kHz, 384 kbps, 3/2 (L,C,R,l,r) + LFE ch
MediaInfo
D:\Мои документы\Моё видео\Фильмы\Zhivoy.XviD.DVDRip.avi
General
Complete name : D:\Мои документы\Моё видео\Фильмы\Zhivoy.XviD.DVDRip.avi
Format : AVI
Format/Info : Audio Video Interleave
File size : 1.37 GiB
Duration : 1h 32mn
Overall bit rate : 2 127 Kbps
Director : rip by mp36kin
Genre : Drama / Military & War
Writing application : VirtualDubMod 1.5.10.2 (build 2540/release)
Original source form/Name : Movie
Copyright : © http://816.sytes.net
Comment : http://www.alivefilm.ru
Video #0
ID : 0
Format : MPEG-4 Visual
Format settings, BVOP : No
Format settings, QPel : No
Format settings, GMC : No warppoints
Format settings, Matrix : Default (H.263)
Codec ID : XVID
Codec ID/Hint : XviD
Duration : 1h 32mn
Bit rate : 1 734 Kbps
Width : 640 pixels
Height : 336 pixels
Display aspect ratio : 1.905
Frame rate : 25.000 fps
Color space : YUV
Chroma subsampling : 4:2:0
Bit depth : 8 bits
Scan type : Progressive
Compression mode : Lossy
Bits/(Pixel*Frame) : 0.322
Stream size : 1.12 GiB (81%)
Writing library : XviD 0.0.03 (UTC 2002-12-09)
Audio #1
ID : 1
Format : AC-3
Format/Info : Audio Coding 3
Mode extension : CM (complete main)
Codec ID : 2000
Duration : 1h 32mn
Bit rate mode : Constant
Bit rate : 384 Kbps
Channel(s) : 6 channels
Channel positions : Front: L C R, Side: L R, LFE
Sampling rate : 48.0 KHz
Bit depth : 16 bits
Compression mode : Lossy
Stream size : 253 MiB (18%)
Alignment : Split accross interleaves
Interleave, duration : 40 ms (1.00 video frame)
Interleave, preload duration : 500 ms
Скриншот c названием фильма Скриншоты Сравнение
[url=http://***/forum/viewtopic.php?t=4117637]http://***/forum/viewtopic.php?t=4117637[/url]
http://screenshotcomparison.com/comparison/130040
Скачать

Скачать торрент!

Как скачивать? · Что такое торрент? · Рейтинг и ограничения

Сайт не распространяет и не хранит электронные версии произведений, а лишь предоставляет доступ к создаваемому пользователями каталогу ссылок на торрент-файлы, которые содержат только списки хеш-сумм

[Профиль] [ЛС]
Показать сообщения:    
Ответить на тему

Текущее время: Сегодня 13:51

Часовой пояс: GMT + 4



Вы не можете начинать темы
Вы не можете отвечать на сообщения
Вы не можете редактировать свои сообщения
Вы не можете удалять свои сообщения
Вы не можете голосовать в опросах
Вы не можете прикреплять файлы к сообщениям
Вы не можете скачивать файлы