Жертвы войны / War Victims (Джопи Бурнама / Jopi Burnama) [1983, Индонезия, Военная драма, VHSRip] VO + Sub Dut

Ответить на тему
 
Автор Сообщение

user ®

Стаж: 13 лет

Сообщений: 15071

Пост Пост: #1 от 05-Июн-2015 10:57

[Цитировать]

Жертвы войны / War Victims
Страна: Индонезия
Жанр: Военная драма
Год выпуска: 1983
Продолжительность: 01:37:52
Перевод: Одноголосый закадровый Ghostface
Cубтитры: нидерландские
Оригинальная аудиодорожка: нет
Режиссер: Джопи Бурнама / Jopi Burnama
В ролях: Мариса Хак, Мангара Сиахаан, Бой Тирайо, Фарида Киптади, Джеффи Сани
Описание: Фильм начинается с доставки группы женщин в японский лагерь, находящийся посреди джунглей. Здесь с ними обращаются как с животными: бьют, пытают, унижают, лишают пищи и т. п. Начальник лагеря категорически не согласен с таким обращением с заключенными, но он не в силах противиться приказам сверху и даже пытается обратиться к высшим военным чинам и поднять этот вопрос, но всё тщетно. А между тем простые солдаты и охранники упиваются своей властью и всячески издеваются над заключенными девушками. Постепенно доведенные пытками и насилием до крайней точки, женщины решают совершить побег.
Доп. информация: Релиз videodemons.com
За появление релиза, благодарности уходят:
punk and destroy, AlexNever, $Shorox, innominate, Симоннс, torturesru, serjik1167, -Holo-, Faulenzer
Сэмпл: http://multi-up.com/1051903
Качество видео: VHSRip
Формат видео: AVI
Видео: Xvid 560x416 25fps 1004kbps
Аудио: Dolby AC3 48000Hz stereo 192kbps
Формат субтитров: hardsub (неотключаемые)
MediaInfo
General
Complete name : D:\War Victims (1983).avi
Format : AVI
Format/Info : Audio Video Interleave
File size : 845 MiB
Duration : 1h 37mn
Overall bit rate : 1 206 Kbps
Writing application : FairUse Wizard - http://fairusewizard.com
Writing library : VirtualDub-MPEG2 build 24586/release
Video
ID : 0
Format : MPEG-4 Visual
Format profile : Advanced Simple@L5
Format settings, BVOP : Yes
Format settings, QPel : No
Format settings, GMC : No warppoints
Format settings, Matrix : Default (H.263)
Muxing mode : Packed bitstream
Codec ID : XVID
Codec ID/Hint : XviD
Duration : 1h 37mn
Bit rate : 1 005 Kbps
Width : 560 pixels
Height : 416 pixels
Display aspect ratio : 4:3
Frame rate : 25.000 fps
Resolution : 8 bits
Colorimetry : 4:2:0
Scan type : Progressive
Bits/(Pixel*Frame) : 0.173
Stream size : 703 MiB (83%)
Writing library : XviD 1.1.0 (UTC 2005-11-22)
Audio
ID : 1
Format : AC-3
Format/Info : Audio Coding 3
Codec ID : 2000
Duration : 1h 37mn
Bit rate mode : Constant
Bit rate : 192 Kbps
Channel(s) : 2 channels
Channel positions : L R
Sampling rate : 48.0 KHz
Stream size : 134 MiB (16%)
Alignment : Aligned on interleaves
Interleave, duration : 40 ms (1.00 video frame)
Interleave, preload duration : 512 ms
Скриншот c названием фильма Скриншоты
Скачать

Скачать торрент! Жертвы войны / War Victims (Джопи Бурнама / Jopi Burnama) [1983, Индонезия, Военная драма, VHSRip] VO + Sub Dut

Как скачивать? · Что такое торрент? · Рейтинг и ограничения

Сайт не распространяет и не хранит электронные версии произведений, а лишь предоставляет доступ к создаваемому пользователями каталогу ссылок на торрент-файлы, которые содержат только списки хеш-сумм

[Профиль] [ЛС]
Показать сообщения:    
Ответить на тему

Текущее время: Сегодня 16:53

Часовой пояс: GMT + 4



Вы не можете начинать темы
Вы не можете отвечать на сообщения
Вы не можете редактировать свои сообщения
Вы не можете удалять свои сообщения
Вы не можете голосовать в опросах
Вы не можете прикреплять файлы к сообщениям
Вы не можете скачивать файлы