Доля секунды / Считанные секунды / Split Second (Тони Мэйлэм / Tony Maylam) [1992, Великобритания, ужасы, фантастика, боевик, триллер, криминал, BDRemux 1080p] 2x MVO + DVO + AVO (Гаврилов) + VO (Завгородний) + Original Eng + Sub (Rus, Eng)

Ответить на тему
 
Автор Сообщение

user ®

Стаж: 7 лет 7 месяцев

Сообщений: 20008

Пост Пост: #1 от 04-Июн-2015 22:36

[Цитировать]

Считанные секунды / Split Second
Год выпуска: 1992
Страна: Великобритания
Жанр: ужасы, фантастика, боевик, триллер, криминал
Продолжительность: 01:30:25
Перевод1: Профессиональный (многолосый закадровый) (LostFilm )
Перевод2: Профессиональный (многолосый закадровый)
Перевод3: Профессиональный (двухголосый закадровый) (студия "Фортуна-Фильм" (ТВ6))
Перевод4: Jдноголосый закадровый (А.Гаврилов)
Перевод5: Авторский (одноголосый закадровый) (В.Завгородний)
Субтитры: русские, английские
Оригинальная аудиодорожка: английский
Режиссер: Тони Мэйлем / Tony Maylam
В ролях: Рутгер Хауэр, Ким Кэтролл, Нил Дункан, Майкл Дж. Поллард, Алан Армстронг, Пит Постлетуэйт, Иэн Дёри, Роберта Итон, Тони Стидман, Стивен Хартли
Описание: В 2008 году туманный Лондон, полузатопленный Темзой после всемирной экологической катастрофы, превратился в чрезвычайно грязное и мрачное подобие Венеции. По его улицам текут потоки мутной воды, с небес постоянно хлещет дождь, а в подземке водится невесть откуда возникший монстр-убийца. Три года назад он убил напарника детектива Харли Стоуна, и теперь тот носится по самым темным закоулкам, одержимый местью. Город потрясен загадочными, нечеловеческими убийствами. Каждый день на улицах находят трупы людей с разорванной грудной клеткой... Никто не верит Стоуну, когда тот утверждает, что полиция имеет дело не с обычным серийным убийцей, а с чудовищем, настоящим исчадьем ада. Но следы зубов на растерзанных телах жертв заставляют прислушаться к его словам. Чудовище выслеживает Стоуна, а Стоун выслеживает монстра. Харли получает нового напарника, чудаковатого парня Дика Дэркина, который очень скоро становится таким же одержимым охотником.

Качество: BDRemux 1080p
Формат: MKV
Видео кодек: H.264
Аудио кодек: AC3
Видео: 1920 x 1080 / MPEG-4 AVC Video / 27496 kbps / 1080p / 23.976 fps / 16:9 / High Profile 4.1
Аудио1: Русский, AC3 2.0 192 Kbps 48,0 КГц (LostFilm)
Аудио2: Русский, AC3 2.0 192 Kbps 48,0 КГц (MVO)
Аудио3: Русский, AC3 2.0 192 Kbps 48,0 КГц (TV6)
Аудио4: Русский, AC3 2.0 192 Kbps 48,0 КГц (Gavrilov)
Аудио5: Русский, AC3 2.0 192 Kbps 48,0 КГц (Zavgorodniy)
Аудио6: English, AC3 5.1 448 Kbps 48,0 КГц (Original)
Субтитры: Softsub (SRT)
Главы
MediaInfo
Общее
Уникальный идентификатор : 239174525560849142766981826523373529640 (0xB3EF568BD5F6F80AAFA0A6C56FB46A28)
Полное имя : D:\Split.Second.1992.BDRemux.1080p.5xRus.Eng.mkv
Формат : Matroska
Версия формата : Version 4 / Version 2
Размер файла : 18,3 Гбайт
Продолжительность : 1 ч. 30 м.
Режим общего битрейта : Переменный
Общий поток : 28,9 Мбит/сек
Название фильма : Split Second
Дата кодирования : UTC 2015-05-29 20:03:35
Программа кодирования : mkvmerge v7.3.0 ('Nouages') 32bit built on Oct 22 2014 18:44:01
Библиотека кодирования : libebml v1.3.0 + libmatroska v1.4.1
_STATISTICS_WRITING_APP : mkvmerge v7.3.0 ('Nouages') 32bit built on Oct 22 2014 18:44:01
_STATISTICS_WRITING_DATE_UTC : 2015-05-29 20:03:35
_STATISTICS_TAGS : BPS DURATION NUMBER_OF_FRAMES NUMBER_OF_BYTES
DURATION : 01:30:25.344000000
NUMBER_OF_FRAMES : 169542
NUMBER_OF_BYTES : 303819264
Видео
Идентификатор : 1
Формат : AVC
Формат/Информация : Advanced Video Codec
Профиль формата : High@L4.1
Параметр CABAC формата : Да
Параметр ReFrames формата : 3 кадра
Параметр GOP формата : M=3, N=23
Идентификатор кодека : V_MPEG4/ISO/AVC
Продолжительность : 1 ч. 30 м.
Вид битрейта : Переменный
Битрейт : 26,9 Мбит/сек
Максимальный битрейт : 35,0 Мбит/сек
Ширина : 1920 пикселей
Высота : 1080 пикселей
Соотношение сторон : 16:9
Режим частоты кадров : Постоянный
Частота кадров : 23,976 кадра/сек
Стандарт вещания : NTSC
Цветовое пространство : YUV
Субдискретизация насыщенности : 4:2:0
Битовая глубина : 8 бит
Тип развёртки : Прогрессивная
Бит/(Пиксели*Кадры) : 0.541
Размер потока : 17,0 Гбайт (93%)
Заголовок : Split Second 1992 1080p GER BluRay AVC DD5.1 - iFPD
Default : Нет
Forced : Нет
Основные цвета : BT.709
Характеристики трансфера : BT.709
Коэффициенты матрицы : BT.709
Аудио #1
Идентификатор : 2
Формат : AC-3
Формат/Информация : Audio Coding 3
Расширение режима : CM (complete main)
Параметр Endianness формата : Big
Идентификатор кодека : A_AC3
Продолжительность : 1 ч. 30 м.
Вид битрейта : Постоянный
Битрейт : 192 Кбит/сек
Каналы : 2 канала
Расположение каналов : Front: L R
Частота : 48,0 КГц
Битовая глубина : 16 бит
Метод сжатия : С потерями
Размер потока : 124 Мбайт (1%)
Заголовок : LostFilm AC3 2.0 192 kbps
Язык : Russian
Default : Нет
Forced : Нет
Аудио #2
Идентификатор : 3
Формат : AC-3
Формат/Информация : Audio Coding 3
Расширение режима : CM (complete main)
Параметр Endianness формата : Big
Идентификатор кодека : A_AC3
Продолжительность : 1 ч. 30 м.
Вид битрейта : Постоянный
Битрейт : 192 Кбит/сек
Каналы : 2 канала
Расположение каналов : Front: L R
Частота : 48,0 КГц
Битовая глубина : 16 бит
Метод сжатия : С потерями
Размер потока : 124 Мбайт (1%)
Заголовок : MVO AC3 2.0 192 kbps
Язык : Russian
Default : Нет
Forced : Нет
Аудио #3
Идентификатор : 4
Формат : AC-3
Формат/Информация : Audio Coding 3
Расширение режима : CM (complete main)
Параметр Endianness формата : Big
Идентификатор кодека : A_AC3
Продолжительность : 1 ч. 30 м.
Вид битрейта : Постоянный
Битрейт : 192 Кбит/сек
Каналы : 2 канала
Расположение каналов : Front: L R
Частота : 48,0 КГц
Битовая глубина : 16 бит
Метод сжатия : С потерями
Размер потока : 124 Мбайт (1%)
Заголовок : TV6 AC3 2.0 192 kbps
Язык : Russian
Default : Нет
Forced : Нет
Аудио #4
Идентификатор : 5
Формат : AC-3
Формат/Информация : Audio Coding 3
Расширение режима : CM (complete main)
Параметр Endianness формата : Big
Идентификатор кодека : A_AC3
Продолжительность : 1 ч. 30 м.
Вид битрейта : Постоянный
Битрейт : 192 Кбит/сек
Каналы : 2 канала
Расположение каналов : Front: L R
Частота : 48,0 КГц
Битовая глубина : 16 бит
Метод сжатия : С потерями
Размер потока : 124 Мбайт (1%)
Заголовок : Gavrilov AC3 2.0 192 kbps
Язык : Russian
Default : Нет
Forced : Нет
Аудио #5
Идентификатор : 6
Формат : AC-3
Формат/Информация : Audio Coding 3
Расширение режима : CM (complete main)
Параметр Endianness формата : Big
Идентификатор кодека : A_AC3
Продолжительность : 1 ч. 30 м.
Вид битрейта : Постоянный
Битрейт : 192 Кбит/сек
Каналы : 2 канала
Расположение каналов : Front: L R
Частота : 48,0 КГц
Битовая глубина : 16 бит
Метод сжатия : С потерями
Размер потока : 124 Мбайт (1%)
Заголовок : Zavgorodniy AC3 2.0 192 kbps
Язык : Russian
Default : Нет
Forced : Нет
Аудио #6
Идентификатор : 7
Формат : AC-3
Формат/Информация : Audio Coding 3
Расширение режима : CM (complete main)
Параметр Endianness формата : Big
Идентификатор кодека : A_AC3
Продолжительность : 1 ч. 30 м.
Вид битрейта : Постоянный
Битрейт : 448 Кбит/сек
Каналы : 6 каналов
Расположение каналов : Front: L C R, Side: L R, LFE
Частота : 48,0 КГц
Битовая глубина : 16 бит
Метод сжатия : С потерями
Размер потока : 290 Мбайт (2%)
Заголовок : Original AC3 5.1 448 kbps
Язык : English
Default : Нет
Forced : Нет
Текст #1
Идентификатор : 8
Формат : UTF-8
Идентификатор кодека : S_TEXT/UTF8
Идентификатор кодека/Информация : UTF-8 Plain Text
Язык : Russian
Default : Нет
Forced : Нет
Текст #2
Идентификатор : 9
Формат : UTF-8
Идентификатор кодека : S_TEXT/UTF8
Идентификатор кодека/Информация : UTF-8 Plain Text
Язык : English
Default : Нет
Forced : Нет
Меню
00:00:00.000 : en:00:00:00.000
00:00:00.375 : en:00:00:00.375
00:11:27.437 : en:00:11:27.437
00:28:56.985 : en:00:28:56.985
00:43:52.296 : en:00:43:52.296
00:59:27.814 : en:00:59:27.814
01:12:43.109 : en:01:12:43.109
01:20:28.240 : en:01:20:28.240
01:27:39.171 : en:01:27:39.171
Сэмпл Скриншоты
Скачать

Скачать торрент!

Как скачивать? · Что такое торрент? · Рейтинг и ограничения

Сайт не распространяет и не хранит электронные версии произведений, а лишь предоставляет доступ к создаваемому пользователями каталогу ссылок на торрент-файлы, которые содержат только списки хеш-сумм

[Профиль] [ЛС]
Показать сообщения:    
Ответить на тему

Текущее время: Сегодня 02:07

Часовой пояс: GMT + 4



Вы не можете начинать темы
Вы не можете отвечать на сообщения
Вы не можете редактировать свои сообщения
Вы не можете удалять свои сообщения
Вы не можете голосовать в опросах
Вы не можете прикреплять файлы к сообщениям
Вы не можете скачивать файлы