Дерзкий / Дерзкие и лихие / Dookudu (Шрину Вайтла / Sreenu Vaitla) [2011, Индия, Боевик, мелодрама, HDRip] MVO (Red Media)

Ответить на тему
 
Автор Сообщение

user ®

Стаж: 12 лет

Сообщений: 15092

Пост Пост: #1 от 04-Июн-2015 19:30

[Цитировать]

Дерзкий / Дерзкие и лихие / Dookudu
Страна: Индия
Жанр: Боевик, мелодрама
Год выпуска: 2011
Продолжительность: 02:54:56
Перевод: Профессиональный (многоголосый закадровый) Red Media
Cубтитры: нет
Режиссер: Шрину Вайтла / Sreenu Vaitla
В ролях: Махеш Бабу, Саманта Рут Прабху, Пракаш Радж, Сону Суд, Брахманандам, Нараяна, Суббараджу, Шриниваса Рао Кота, Саяджи Шинде, Веннела Кишор, Нассар
Описание: Шанкар Нараян является видным политиком и людским заступником в глазах жителей Хайдарабада. Люди, которым он мешал проворачивать их малозаконные и совсем незаконные делишки, совершают на него покушение, в результате которого Шанкар сильно пострадал, впал в кому на несколько лет и потерял память (по крайней мере о последних событиях своей жизни он не помнит). Сын благодетеля простого люда, Аджай (который стал полицейским), стремится не только успешно выполнить задание, возложенное на него начальством, но и наказать обидчиков отца. По воле случая обе цели объединяются.
Доп. информация: Видеоряд взят с раздачи [url=http://***/forum/viewtopic.php?t=4265106]ii0606ii[/url] Спасибо!
За звук и его синхронизацию Спасибо soso4eg !
Сэмпл: http://multi-up.com/1051993
Качество видео: HDRip
Формат видео: AVI
Видео: XviD build 50, 720x304 (2.37:1), 23.976 fps, 1546 kbps avg
Аудио: MPEG Layer 3, 48 kHz, 2/0 (L,R) ch, 128.00 kbps avg
MediaInfo
General
Complete name : F:\Derzkiy.2011.HDRip.avi
Format : AVI
Format/Info : Audio Video Interleave
Format profile : OpenDML
File size : 2.05 GiB
Duration : 2h 54mn
Overall bit rate : 1 682 Kbps
Writing application : VirtualDubMod 1.5.10.2 (build 2540/release)
Writing library : VirtualDubMod build 2540/release
Video
ID : 0
Format : MPEG-4 Visual
Format profile : AdvancedSimple@L5
Format settings, BVOP : Yes
Format settings, QPel : No
Format settings, GMC : No warppoints
Format settings, Matrix : Default (MPEG)
Codec ID : XVID
Codec ID/Hint : XviD
Duration : 2h 54mn
Bit rate : 1 542 Kbps
Width : 720 pixels
Height : 304 pixels
Display aspect ratio : 2.35
Frame rate : 23.976 fps
Resolution : 24 bits
Colorimetry : 4:2:0
Scan type : Progressive
Bits/(Pixel*Frame) : 0.294
Stream size : 1.88 GiB (92%)
Writing library : XviD 1.2.1 (UTC 2008-12-04)
Audio
ID : 1
Format : MPEG Audio
Format version : Version 1
Format profile : Layer 3
Codec ID : 55
Codec ID/Hint : MP3
Duration : 2h 54mn
Bit rate mode : Constant
Bit rate : 128 Kbps
Channel(s) : 2 channels
Sampling rate : 48.0 KHz
Resolution : 16 bits
Stream size : 160 MiB (8%)
Alignment : Aligned on interleaves
Interleave, duration : 42 ms (1.00 video frame)
Interleave, preload duration : 504 ms
Writing library : LAME3.98
Encoding settings : -m j -V 4 -q 3 -lowpass 17 -b 128
Скриншоты
Скачать

Скачать торрент! Дерзкий / Дерзкие и лихие / Dookudu (Шрину Вайтла / Sreenu Vaitla) [2011, Индия, Боевик, мелодрама, HDRip] MVO (Red Media)

Как скачивать? · Что такое торрент? · Рейтинг и ограничения

Сайт не распространяет и не хранит электронные версии произведений, а лишь предоставляет доступ к создаваемому пользователями каталогу ссылок на торрент-файлы, которые содержат только списки хеш-сумм

[Профиль] [ЛС]
Показать сообщения:    
Ответить на тему

Текущее время: Сегодня 07:09

Часовой пояс: GMT + 4



Вы не можете начинать темы
Вы не можете отвечать на сообщения
Вы не можете редактировать свои сообщения
Вы не можете удалять свои сообщения
Вы не можете голосовать в опросах
Вы не можете прикреплять файлы к сообщениям
Вы не можете скачивать файлы