Меня зовут Кхан / My Name Is Khan (Каран Джохар / Karan Johar) [2010, Индия, драма, мелодрама, BDRip-AVC] Dub + Sub Rus, Eng + Original (Hin, Eng)

Ответить на тему
 
Автор Сообщение

user ®

Стаж: 12 лет

Сообщений: 15092

Пост Пост: #1 от 04-Июн-2015 19:30

[Цитировать]

Меня зовут Кхан | My Name Is Khan
«Обычный человек, необычайное путешествие... во имя любви»
- Страна: Индия
Жанр: драма, мелодрама
Год выпуска: 2010
Продолжительность: 02:41:31
Перевод: Профессиональный (дублированный) (со вставками zamez)
Cубтитры: Rus, Eng
Оригинальная аудиодорожка: Hindi, Eng
Режиссер: Каран Джохар / Karan Johar
В ролях:
Шах Рукх Кхан | Shah Rukh Khan
Каджол | Kajol

Кэти А. Кин, Кентон Дюти, Бенни Нивз, Кристофер Б. Дункан, Джимми Шергилл, Соня Джехан, Парвин Дабас, Арджун Матур-ОписаниеРизван Кхан, мусульманин из Индии, переезжает в Сан-Франциско и живет со своим братом и невесткой. Ризван, страдающий от Синдрома Аспергера, влюбляется в Мандиру. Несмотря на протесты его семьи, они женятся и начинают вместе небольшой бизнес. Они живут счастливо до 11 сентября 2001 года, когда отношение к мусульманам резко меняется. Когда происходит трагедия, Мандира оказывается раздавленной и их отношения дают трещину. Ризван растерян и очень расстроен тем, что любовь всей его жизни покинула его. Чтобы вернуть ее, он предпринимает трогательное и вдохновляющее путешествие через всю Америку.-Сэмпл
Топ 250: 104
IMDb: 8.00 (51 147)
Качество видео: BDRip-AVC [url=http://***/forum/viewtopic.php?t=3995331]BDRemux 1080p[/url]
Формат видео: MKV
Видео: AVC 3328 Kbps 1120 x 476 (2.353) 24.000 fps
Аудио: AC-3 384 Kbps 6 channels, 48.0 KHz Rus Профессиональный (полное дублирование) + вставки VO (в тех местах, где дубляж отсутствует, наложена одноголосая озвучка zamez`a). За сведение аудио спасибо The_Mummy
Аудио 2: AC-3 448 Kbps 6 channels, 48.0 KHz Hindi, Eng
Формат субтитров: softsub (SRT)
MediaInfo | Log
Log
x264 [info]: frame I:1505 Avg QP:17.40 size: 81501
x264 [info]: frame P:52605 Avg QP:19.18 size: 35478
x264 [info]: frame B:178489 Avg QP:21.27 size: 12002
x264 [info]: consecutive B-frames: 1.7% 3.9% 7.5% 26.6% 20.8% 32.3% 4.2% 1.0% 0.7% 0.4% 0.2% 0.2% 0.5%
x264 [info]: mb I I16..4: 9.3% 67.6% 23.1%
x264 [info]: mb P I16..4: 1.0% 15.7% 2.1% P16..4: 26.7% 32.2% 13.8% 2.4% 0.3% skip: 5.9%
x264 [info]: mb B I16..4: 0.1% 1.6% 0.2% B16..8: 36.3% 21.0% 4.1% direct: 6.6% skip:30.1% L0:41.0% L1:44.5% BI:14.5%
x264 [info]: 8x8 transform intra:82.0% inter:57.7%
x264 [info]: direct mvs spatial:99.9% temporal:0.1%
x264 [info]: coded y,uvDC,uvAC intra: 89.3% 87.0% 72.8% inter: 29.7% 27.5% 7.8%
x264 [info]: i16 v,h,dc,p: 42% 18% 8% 32%
x264 [info]: i8 v,h,dc,ddl,ddr,vr,hd,vl,hu: 8% 8% 12% 10% 13% 12% 13% 11% 13%
x264 [info]: i4 v,h,dc,ddl,ddr,vr,hd,vl,hu: 12% 9% 8% 8% 14% 13% 13% 11% 12%
x264 [info]: i8c dc,h,v,p: 44% 23% 17% 17%
x264 [info]: Weighted P-Frames: Y:4.4% UV:3.0%
x264 [info]: ref P L0: 44.6% 12.3% 17.8% 6.1% 5.4% 3.6% 3.4% 1.8% 1.8% 1.4% 1.6% 0.2% 0.0%
x264 [info]: ref B L0: 76.6% 10.4% 4.7% 2.5% 1.8% 1.4% 1.1% 0.7% 0.4% 0.3%
x264 [info]: ref B L1: 94.4% 5.6%
x264 [info]: kb/s:3410.06
x264 [total]: encoded 232599 frames, 9.93 fps, 3410.06 kb/s, duration 6:30:25.35
Format : Matroska
Format version : Version 4 / Version 2
File size : 4.79 GiB
Duration : 2h 41mn
Overall bit rate : 4 244 Kbps
Encoded date : UTC 2015-06-04 11:12:47
Writing application : mkvmerge v6.7.0 ('Back to the Ground') 32bit built on Jan 8 2014 15:03:17
Writing library : libebml v1.3.0 + libmatroska v1.4.1
Video
ID : 1
Format : AVC
Format/Info : Advanced Video Codec
Format profile : High@L4.1
Format settings, CABAC : Yes
Format settings, ReFrames : 11 frames
Codec ID : V_MPEG4/ISO/AVC
Duration : 2h 41mn
Bit rate : 3 328 Kbps
Width : 1 120 pixels
Height : 476 pixels
Display aspect ratio : 2.35:1
Frame rate mode : Constant
Frame rate : 24.000 fps
Color space : YUV
Chroma subsampling : 4:2:0
Bit depth : 8 bits
Scan type : Progressive
Bits/(Pixel*Frame) : 0.260
Stream size : 3.75 GiB (78%)
Title : My name is Khan (2010) [***]
Writing library : x264 core 146 r2538kMod 121396c
Encoding settings : cabac=1 / ref=11 / deblock=1:-2:-1 / analyse=0x3:0x133 / me=umh / subme=11 / psy=1 / fade_compensate=0.00 / psy_rd=1.00:0.05 / mixed_ref=1 / me_range=32 / chroma_me=1 / trellis=2 / 8x8dct=1 / cqm=0 / deadzone=21,11 / fast_pskip=0 / chroma_qp_offset=-3 / threads=12 / lookahead_threads=3 / sliced_threads=0 / nr=0 / decimate=1 / interlaced=0 / bluray_compat=0 / constrained_intra=0 / fgo=0 / bframes=12 / b_pyramid=2 / b_adapt=2 / b_bias=0 / direct=3 / weightb=1 / open_gop=0 / weightp=2 / keyint=250 / keyint_min=23 / scenecut=40 / intra_refresh=0 / rc_lookahead=80 / rc=crf / mbtree=0 / crf=18.5000 / qcomp=0.60 / qpmin=0 / qpmax=69 / qpstep=4 / vbv_maxrate=50000 / vbv_bufsize=62500 / crf_max=0.0 / nal_hrd=none / filler=0 / ip_ratio=1.40 / pb_ratio=1.30 / aq=3:0.90
Language : Hindi
Default : Yes
Forced : No
Audio #1
ID : 2
Format : AC-3
Format/Info : Audio Coding 3
Mode extension : CM (complete main)
Format settings, Endianness : Big
Codec ID : A_AC3
Duration : 2h 41mn
Bit rate mode : Constant
Bit rate : 384 Kbps
Channel(s) : 6 channels
Channel positions : Front: L C R, Side: L R, LFE
Sampling rate : 48.0 KHz
Bit depth : 16 bits
Compression mode : Lossy
Stream size : 444 MiB (9%)
Title : Dub
Language : Russian
Default : Yes
Forced : No
Audio #2
ID : 3
Format : AC-3
Format/Info : Audio Coding 3
Mode extension : CM (complete main)
Format settings, Endianness : Big
Codec ID : A_AC3
Duration : 2h 41mn
Bit rate mode : Constant
Bit rate : 448 Kbps
Channel(s) : 6 channels
Channel positions : Front: L C R, Side: L R, LFE
Sampling rate : 48.0 KHz
Bit depth : 16 bits
Compression mode : Lossy
Stream size : 518 MiB (11%)
Title : Original [Hindi | English]
Language : Hindi
Default : No
Forced : No
Text #1
ID : 4
Format : UTF-8
Codec ID : S_TEXT/UTF8
Codec ID/Info : UTF-8 Plain Text
Title : Full
Language : Russian
Default : No
Forced : No
Text #2
ID : 5
Format : UTF-8
Codec ID : S_TEXT/UTF8
Codec ID/Info : UTF-8 Plain Text
Title : Full
Language : English
Default : No
Forced : No
Menu
00:00:00.000 : en:Chapter 1
00:04:31.416 : en:Chapter 2
00:09:40.000 : en:Chapter 3
00:21:47.416 : en:Chapter 4
00:27:45.416 : en:Chapter 5
00:33:31.000 : en:Chapter 6
00:39:58.000 : en:Chapter 7
00:46:01.416 : en:Chapter 8
00:55:57.625 : en:Chapter 9
00:57:55.000 : en:Chapter 10
01:03:21.000 : en:Chapter 11
01:10:36.416 : en:Chapter 12
01:21:40.000 : en:Chapter 13
01:27:10.000 : en:Chapter 14
01:33:07.000 : en:Chapter 15
01:41:40.000 : en:Chapter 16
01:47:41.000 : en:Chapter 17
01:52:04.000 : en:Chapter 18
01:56:58.000 : en:Chapter 19
02:09:53.625 : en:Chapter 20
02:15:36.000 : en:Chapter 21
02:24:17.000 : en:Chapter 22
02:27:05.625 : en:Chapter 23
02:31:33.000 : en:Chapter 24
Скриншоты
Скачать

Скачать торрент! Меня зовут Кхан / My Name Is Khan (Каран Джохар / Karan Johar) [2010, Индия, драма, мелодрама, BDRip-AVC] Dub + Sub Rus, Eng + Original (Hin, Eng)

Как скачивать? · Что такое торрент? · Рейтинг и ограничения

Сайт не распространяет и не хранит электронные версии произведений, а лишь предоставляет доступ к создаваемому пользователями каталогу ссылок на торрент-файлы, которые содержат только списки хеш-сумм

[Профиль] [ЛС]
Показать сообщения:    
Ответить на тему

Текущее время: Сегодня 15:56

Часовой пояс: GMT + 4



Вы не можете начинать темы
Вы не можете отвечать на сообщения
Вы не можете редактировать свои сообщения
Вы не можете удалять свои сообщения
Вы не можете голосовать в опросах
Вы не можете прикреплять файлы к сообщениям
Вы не можете скачивать файлы