Верзила Салмон / The Slammin\' Salmon (Кевин Хеффернан / Kevin Heffernan) [2009, США, комедия, BDRip 720p] DVO + Sub (Rus, Eng) + Original Eng

Ответить на тему
 
Автор Сообщение

user ®

Стаж: 7 лет 7 месяцев

Сообщений: 20008

Пост Пост: #1 от 04-Июн-2015 19:30

[Цитировать]

Верзила Салмон / The Slammin' Salmon- Страна: США
Студия: Broken Lizard Productions
Жанр: комедия
Год выпуска: 2009
Продолжительность: 01:44:39
Перевод: Профессиональный (двухголосый закадровый)
Cубтитры: русские, английские
Оригинальная аудиодорожка: английский-Режиссер: Кевин Хеффернан / Kevin Heffernan
В ролях: Майкл Кларк Дункан, Джефф Чейз, Карла Галло, Пол Сотер, Майкл Юрчак, Нат Факсон, Джоли Мартин, Эрик Столханске, Джей Чандрашекхар, Эйприл Боулби, Коби Смолдерс-Описание: Экс-чемпион по боксу в супертяжёлом весе Клеон «Верзила» Салмон владеет рестораном в Майами. Вот только с персоналом ему не везёт — отмороженные официанты вредят бизнесу спортсмена. Используя свои боксёрские навыки, Клеон попробует научить их работать, но и от битых сотрудников едва ли будет толк…
-
-Тип релиза: BDRip 720p
Контейнер: MKV
Видео: x.264, 1280x720, 23.976 fps, 5906 kbps, 0.267 bpf
Аудио 1: AC3, 48000 Hz, 448 kbps, 5.1 channels - Двухголосый
Аудио 2: DTS, 48000 Hz, 1509 kbps, 5.1 channels - Оригинал
Аудио 3: AAC, 48000 Hz, ~64 kbps, 2.0 channels - Комментарии 1
Аудио 4: AAC, 48000 Hz, ~64 kbps, 2.0 channels - Комментарии 2
Формат субтитров: softsub (SRT) - русские, английские
-Скриншоты / Сравнение
NEW Rip - [url=http://***/forum/viewtopic.php?t=2895474]OLD Rip[/url]








MediaInfo
Format : Matroska
Format version : Version 4 / Version 2
File size : 5.49 GiB
Duration : 1h 38mn
Overall bit rate : 7 980 Kbps
Movie name : Верзила Салмон / The Slammin' Salmon (2009) BDRip 720p [RG Torrents.ru]
Encoded date : UTC 2015-06-02 17:10:26
Writing application : mkvmerge v7.8.0 ('River Man') 32bit built on Mar 27 2015 16:18:02
Writing library : libebml v1.3.1 + libmatroska v1.4.2
Cover : Yes
Video
ID : 1
Format : AVC
Format/Info : Advanced Video Codec
Format profile : High@L4.1
Format settings, CABAC : Yes
Format settings, ReFrames : 8 frames
Codec ID : V_MPEG4/ISO/AVC
Duration : 1h 38mn
Nominal bit rate : 5 906 Kbps
Width : 1 280 pixels
Height : 720 pixels
Display aspect ratio : 16:9
Frame rate mode : Constant
Frame rate : 23.976 fps
Color space : YUV
Chroma subsampling : 4:2:0
Bit depth : 8 bits
Scan type : Progressive
Bits/(Pixel*Frame) : 0.267
Title : RG Torrents.ru
Writing library : x264 core 146 r2538 121396c
Encoding settings : cabac=1 / ref=8 / deblock=1:-3:-3 / analyse=0x3:0x113 / me=umh / subme=10 / psy=1 / psy_rd=1.00:0.05 / mixed_ref=1 / me_range=32 / chroma_me=1 / trellis=2 / 8x8dct=1 / cqm=0 / deadzone=21,11 / fast_pskip=0 / chroma_qp_offset=-3 / threads=6 / lookahead_threads=1 / sliced_threads=0 / nr=0 / decimate=1 / interlaced=0 / bluray_compat=0 / constrained_intra=0 / bframes=8 / b_pyramid=2 / b_adapt=2 / b_bias=0 / direct=1 / weightb=1 / open_gop=0 / weightp=2 / keyint=240 / keyint_min=23 / scenecut=40 / intra_refresh=0 / rc_lookahead=60 / rc=2pass / mbtree=0 / bitrate=5906 / ratetol=1.0 / qcomp=0.60 / qpmin=0 / qpmax=69 / qpstep=4 / cplxblur=20.0 / qblur=0.5 / vbv_maxrate=50000 / vbv_bufsize=62500 / nal_hrd=none / filler=0 / ip_ratio=1.40 / pb_ratio=1.30 / aq=2:0.90
Language : English
Default : Yes
Forced : No
Audio #1
ID : 2
Format : AC-3
Format/Info : Audio Coding 3
Mode extension : CM (complete main)
Format settings, Endianness : Big
Codec ID : A_AC3
Duration : 1h 38mn
Bit rate mode : Constant
Bit rate : 448 Kbps
Channel(s) : 6 channels
Channel positions : Front: L C R, Side: L R, LFE
Sampling rate : 48.0 KHz
Bit depth : 16 bits
Compression mode : Lossy
Stream size : 315 MiB (6%)
Language : Russian
Default : Yes
Forced : No
Audio #2
ID : 3
Format : DTS
Format/Info : Digital Theater Systems
Mode : 16
Format settings, Endianness : Big
Codec ID : A_DTS
Duration : 1h 38mn
Bit rate mode : Constant
Bit rate : 1 509 Kbps
Channel(s) : 6 channels
Channel positions : Front: L C R, Side: L R, LFE
Sampling rate : 48.0 KHz
Bit depth : 16 bits
Compression mode : Lossy
Stream size : 1.04 GiB (19%)
Language : English
Default : No
Forced : No
Audio #3
ID : 4
Format : AAC
Format/Info : Advanced Audio Codec
Format profile : HE-AAC / LC
Codec ID : A_AAC
Duration : 1h 38mn
Channel(s) : 2 channels
Channel positions : Front: L R
Sampling rate : 48.0 KHz / 24.0 KHz
Compression mode : Lossy
Title : Commentary 1
Language : English
Default : No
Forced : No
Audio #4
ID : 5
Format : AAC
Format/Info : Advanced Audio Codec
Format profile : HE-AAC / LC
Codec ID : A_AAC
Duration : 1h 38mn
Channel(s) : 2 channels
Channel positions : Front: L R
Sampling rate : 48.0 KHz / 24.0 KHz
Compression mode : Lossy
Title : Commentary 2
Language : English
Default : No
Forced : No
Text #1
ID : 6
Format : UTF-8
Codec ID : S_TEXT/UTF8
Codec ID/Info : UTF-8 Plain Text
Language : Russian
Default : No
Forced : No
Text #2
ID : 7
Format : UTF-8
Codec ID : S_TEXT/UTF8
Codec ID/Info : UTF-8 Plain Text
Language : English
Default : No
Forced : No
Menu
00:00:00.000 : :Medium Rare
00:06:03.446 : :Coleslaw Never Tasted So Good!
00:14:47.720 : :Japanese Albino Hunting
00:18:28.316 : :Norma Jones Ticket
00:26:23.624 : :$450,000 Brownie
00:37:33.293 : :Soup Face
00:46:40.923 : :Meat Drapes
00:55:06.094 : :Zongo Like Vodka!
01:05:00.939 : :The Nose Knows
01:11:58.981 : :Home Stretch
01:21:57.037 : :The Final Tally
01:31:59.723 : :End Credits
Скачать

Скачать торрент!

Как скачивать? · Что такое торрент? · Рейтинг и ограничения

Сайт не распространяет и не хранит электронные версии произведений, а лишь предоставляет доступ к создаваемому пользователями каталогу ссылок на торрент-файлы, которые содержат только списки хеш-сумм

[Профиль] [ЛС]
Показать сообщения:    
Ответить на тему

Текущее время: Сегодня 04:49

Часовой пояс: GMT + 4



Вы не можете начинать темы
Вы не можете отвечать на сообщения
Вы не можете редактировать свои сообщения
Вы не можете удалять свои сообщения
Вы не можете голосовать в опросах
Вы не можете прикреплять файлы к сообщениям
Вы не можете скачивать файлы