Скрипка в джунглях (Валентин Подпомогов) [1970, рисованный мультфильм, WEBRip]

Ответить на тему
 
Автор Сообщение

user ®

Стаж: 7 лет 7 месяцев

Сообщений: 20008

Пост Пост: #1 от 04-Июн-2015 16:24

[Цитировать]

Скрипка в джунглях
Страна: СССР
Производство: Арменфильм
Жанр: рисованный мультфильм
Продолжительность: 00:07:00
Год выпуска: 1970
Русские субтитры: нет
Режиссёр: Валентин Подпомогов
Описание: Скрипач заблудился в джунглях, но волшебные звуки скрипки очаровывают диких зверей и спасают жизнь скрипача.
Кинопоиск
Качество: WEBRip
Формат: AVI
Видео: 704x528 (1.33:1), 25 fps, XviD MPEG-4 ~1732 kbps avg, 0.186 bit/pixel
Аудио: 44.1 kHz, MPEG Layer 3, 2 ch, ~192.00 kbps avg
Субтитры: Отсутствуют

Подробные технические данные
GeneralComplete name : E:\1\мультики\Скрипка в джунглях 1970.aviFormat : AVIFormat/Info : Audio Video InterleaveFile size : 96.9 MiBDuration : 7mn 0sOverall bit rate : 1 934 KbpsWriting application : VirtualDubMod 1.5.10.3 | www.virtualdub-fr.org || (build 2550/release)Writing library : VirtualDubMod build 2550/release
VideoID : 0Format : MPEG-4 VisualFormat profile : Advanced Simple@L5Format settings, BVOP : 2Format settings, QPel : NoFormat settings, GMC : No warppointsFormat settings, Matrix : Default (H.263)Codec ID : XVIDCodec ID/Hint : XviDDuration : 7mn 0sBit rate : 1 732 KbpsWidth : 704 pixelsHeight : 528 pixelsDisplay aspect ratio : 4:3Frame rate : 25.000 fpsColor space : YUVChroma subsampling : 4:2:0Bit depth : 8 bitsScan type : ProgressiveCompression mode : LossyBits/(Pixel*Frame) : 0.186Stream size : 86.8 MiB (90%)Writing library : XviD 1.2.1 (UTC 2008-12-04)
AudioID : 1Format : MPEG AudioFormat version : Version 1Format profile : Layer 3Codec ID : 55Codec ID/Hint : MP3Duration : 7mn 0sBit rate mode : ConstantBit rate : 192 KbpsChannel count : 2 channelsSampling rate : 44.1 KHzCompression mode : LossyStream size : 9.62 MiB (10%)Alignment : Split accross interleavesInterleave, duration : 40 ms (1.00 video frame)Interleave, preload duration : 500 msWriting library : LAME3.99rEncoding settings : -m s -V 4 -q 0 -lowpass 18.6 -b 192
Скриншоты
Скачать

Скачать торрент!

Как скачивать? · Что такое торрент? · Рейтинг и ограничения

Сайт не распространяет и не хранит электронные версии произведений, а лишь предоставляет доступ к создаваемому пользователями каталогу ссылок на торрент-файлы, которые содержат только списки хеш-сумм

[Профиль] [ЛС]
Показать сообщения:    
Ответить на тему

Текущее время: Сегодня 06:05

Часовой пояс: GMT + 4



Вы не можете начинать темы
Вы не можете отвечать на сообщения
Вы не можете редактировать свои сообщения
Вы не можете удалять свои сообщения
Вы не можете голосовать в опросах
Вы не можете прикреплять файлы к сообщениям
Вы не можете скачивать файлы