Абрек Заур / Сын гор (Борис Михин) [1926, исторический, драма, VHSRip]

Ответить на тему
 
Автор Сообщение

user ®

Стаж: 7 лет 7 месяцев

Сообщений: 20008

Пост Пост: #1 от 04-Июн-2015 16:24

[Цитировать]

Абрек Заур / Сын гор Страна: СССР
Производство: Госкино
Жанр: Исторический, драма
Год выпуска: 1926
Продолжительность: 01:07:59
Режиссёр: Борис Михин
В ролях: Владимир Бестаев, Александр Такайшвили, Валериан (Валико) Гуниа, Нина Аганбекян, Нина Гантарина, Николай Санишвили, Владимир Кригер, Мустафа Марданов, Александра Васильева, Д. Кусов, Ванда Роговская, Григол Чечелашвили
Описание: Середина XIX в. Горец Заур-бек, объявленный за убийство русского офицера «вне закона», становится абреком. Дом его сжигают, отца и сестру арестовывают. Но сам абрек Заур неуловим. Чтобы заставить его сдаться, царские власти решают сжечь родной аул Заура. Желая спасти своих земляков, он отдает себя в руки царских войск. Однако перед казнью Заур успевает, сговорившись с горцами, вскочить на лошадь и скрыться.
Доп. информация: Немой фильм. В 1938 г. фильм был сокращен до 5 частей и выпущен в новой редакции. Наличие титров, отсутствует музыкальное сопровождение.
Сэмпл: http://multi-up.com/1052039
Качество видео: VHSRip
Формат видео: AVI
Видео: XviD 64, 624x480 (4:3), 23.976 fps, 1439 kbps avg
Аудио: MPEG Layer 3, 44 kHz, 2 ch, 128.00 kbps avg
MediaInfo
General
Complete name : F:\Abrek.Zaur_1926\Abrek.Zaur_1926.VHSRip.avi
Format : AVI
Format/Info : Audio Video Interleave
File size : 767 MiB
Duration : 1h 7mn
Overall bit rate : 1 576 Kbps
Writing application : VirtualDubModRus 1.5.10.2 (build 2542/release)
Writing library : VirtualDubMod build 2542/release
Video
ID : 0
Format : MPEG-4 Visual
Format profile : Advanced Simple@L5
Format settings, BVOP : 1
Format settings, QPel : No
Format settings, GMC : No warppoints
Format settings, Matrix : Default (MPEG)
Codec ID : XVID
Codec ID/Hint : XviD
Duration : 1h 7mn
Bit rate : 1 439 Kbps
Width : 624 pixels
Height : 480 pixels
Display aspect ratio : 4:3
Frame rate : 23.976 fps
Color space : YUV
Chroma subsampling : 4:2:0
Bit depth : 8 bits
Scan type : Progressive
Compression mode : Lossy
Bits/(Pixel*Frame) : 0.200
Stream size : 700 MiB (91%)
Writing library : XviD 64
Audio
ID : 1
Format : MPEG Audio
Format version : Version 1
Format profile : Layer 3
Mode : Joint stereo
Mode extension : MS Stereo
Codec ID : 55
Codec ID/Hint : MP3
Duration : 1h 7mn
Bit rate mode : Constant
Bit rate : 128 Kbps
Channel(s) : 2 channels
Sampling rate : 44.1 KHz
Compression mode : Lossy
Stream size : 62.2 MiB (8%)
Alignment : Split accross interleaves
Interleave, duration : 42 ms (1.00 video frame)
Interleave, preload duratio : 500 ms
Writing library : LAME3.98.4
Скриншот c названием фильма Скриншоты
Скачать

Скачать торрент!

Как скачивать? · Что такое торрент? · Рейтинг и ограничения

Сайт не распространяет и не хранит электронные версии произведений, а лишь предоставляет доступ к создаваемому пользователями каталогу ссылок на торрент-файлы, которые содержат только списки хеш-сумм

[Профиль] [ЛС]
Показать сообщения:    
Ответить на тему

Текущее время: Сегодня 00:42

Часовой пояс: GMT + 4



Вы не можете начинать темы
Вы не можете отвечать на сообщения
Вы не можете редактировать свои сообщения
Вы не можете удалять свои сообщения
Вы не можете голосовать в опросах
Вы не можете прикреплять файлы к сообщениям
Вы не можете скачивать файлы