Любовь с акцентом (Резо Гигинеишвили) [2012, комедия, приключения, BDRip-AVC] + Sub Eng

Ответить на тему
 
Автор Сообщение

user ®

Стаж: 7 лет 7 месяцев

Сообщений: 20008

Пост Пост: #1 от 04-Июн-2015 00:57

[Цитировать]

Любовь с акцентом
Слоган: «Море любви. Море приключений»
Студия: апрельМИГпикчерс, Студия «Независимый Кинопроект»
Жанр: комедия, приключения
Год выпуска: 2012
Продолжительность: 01:43:49
Cубтитры: английские--Режиссер: Резо Гигинеишвили--В ролях: Светлана Бондарчук, Филипп Янковский, Надежда Михалкова, Анна Михалкова, Никита Ефремов, Артур Смольянинов, Ирина Пегова, Ольга Баблуани, Дута Схиртладзе, Георгий Кипшидзе...--Описание: «Любовь с акцентом» - фильм о настоящей любви: яркой и страстной, зрелой и беспощадной, наивной и нелепой, счастливой и не очень. Истории героев сплетаются в одну большую ироничную комедию о том, что настоящая любовь не знает ни границ, ни законов, ни национальностей. Романтические приключения таких разных и непохожих друг на друга героев под аккомпанемент завораживающей южной природы.--Доп. информация: Kinopoisk | IMDB | Sample--Тип релиза: BDRip-AVC Источник: Любовь с акцентом (2012) Blu-ray 1080p AVC DTS 5.1-HDCLUB
Контейнер: MKV
Видео: MPEG4/AVC, 768x328, 1630 Kbps, 24.000 fps, 0.270 bit/pixel.
Аудио: 48 kHz, AC3 Dolby Digital, 3/2 (L,C,R,l,r) + LFE ch, ~384.00 kbps avg
Формат субтитров: softsub (SRT)
MediaInfo/x264
x264 [info]: frame I:61 Avg QP:15.34 size: 62631
x264 [info]: frame P:555 Avg QP:18.90 size: 17048
x264 [info]: frame B:1899 Avg QP:21.39 size: 4253
-General
Unique ID : 185278682457748014485143616116699033750 (0x8B63605296A1E7DDB05431CE4511F096)
Complete name : Любовь с акцентом.mkv
Format : Matroska
Format version : Version 4 / Version 2
File size : 1.46 GiB
Duration : 1h 43mn
Overall bit rate mode : Variable
Overall bit rate : 2 018 Kbps
Movie name : Любовь с акцентом (2012)
Encoded date : UTC 2015-06-03 19:01:52
Writing application : mkvmerge v7.8.0 ('River Man') 64bit built on Mar 27 2015 16:31:37
Writing library : libebml v1.3.1 + libmatroska v1.4.2
Attachements : cover.png
DURATION : 01:39:28.999000000
NUMBER_OF_FRAMES : 823
NUMBER_OF_BYTES : 27992
_STATISTICS_WRITING_APP : mkvmerge v7.8.0 ('River Man') 64bit built on Mar 27 2015 16:31:37
_STATISTICS_WRITING_DATE_UT : 2015-06-03 19:01:52
_STATISTICS_TAGS : BPS DURATION NUMBER_OF_FRAMES NUMBER_OF_BYTES
Video
ID : 1
Format : AVC
Format/Info : Advanced Video Codec
Format profile : High@L4.1
Format settings, CABAC : Yes
Format settings, ReFrames : 9 frames
Codec ID : V_MPEG4/ISO/AVC
Duration : 1h 43mn
Bit rate mode : Variable
Bit rate : 1 630 Kbps
Maximum bit rate : 40.0 Mbps
Width : 768 pixels
Height : 328 pixels
Display aspect ratio : 2.35:1
Original display aspect rat : 2.35:1
Frame rate mode : Constant
Frame rate : 24.000 fps
Color space : YUV
Chroma subsampling : 4:2:0
Bit depth : 8 bits
Scan type : Progressive
Bits/(Pixel*Frame) : 0.270
Stream size : 1.16 GiB (79%)
Writing library : x264 core 128 r2216M 198a7ea
Encoding settings : cabac=1 / ref=10 / deblock=1:-2:-2 / analyse=0x3:0x133 / me=umh / subme=9 / psy=1 / psy_rd=1.10:0.00 / mixed_ref=1 / me_range=32 / chroma_me=1 / trellis=2 / 8x8dct=1 / cqm=0 / deadzone=21,11 / fast_pskip=0 / chroma_qp_offset=-2 / threads=4 / lookahead_threads=1 / sliced_threads=0 / nr=0 / decimate=1 / interlaced=0 / bluray_compat=0 / constrained_intra=0 / bframes=11 / b_pyramid=1 / b_adapt=2 / b_bias=0 / direct=3 / weightb=1 / open_gop=0 / weightp=2 / keyint=240 / keyint_min=24 / scenecut=40 / intra_refresh=0 / rc_lookahead=240 / rc=2pass / mbtree=1 / bitrate=1630 / ratetol=1.0 / qcomp=0.70 / qpmin=0 / qpmax=69 / qpstep=4 / cplxblur=20.0 / qblur=0.5 / vbv_maxrate=20000 / vbv_bufsize=20000 / nal_hrd=none / ip_ratio=1.35 / aq=2:0.
Language : Russian
Default : Yes
Forced : No
Audio
ID : 2
Format : AC-3
Format/Info : Audio Coding 3
Mode extension : CM (complete main)
Format settings, Endianness : Big
Codec ID : A_AC3
Duration : 1h 43mn
Bit rate mode : Constant
Bit rate : 384 Kbps
Channel(s) : 6 channels
Channel positions : Front: L C R, Side: L R, LFE
Sampling rate : 48.0 KHz
Bit depth : 16 bits
Compression mode : Lossy
Stream size : 285 MiB (19%)
Language : Russian
Default : Yes
Forced : No
Text
ID : 3
Format : UTF-8
Codec ID : S_TEXT/UTF8
Codec ID/Info : UTF-8 Plain Text
Language : English
Default : No
Forced : No
Menu
00:00:00.000 : ru:Chapter 1
00:00:31.000 : ru:Chapter 2
00:09:32.166 : ru:Chapter 3
00:21:17.375 : ru:Chapter 4
00:31:37.000 : ru:Chapter 5
00:40:41.000 : ru:Chapter 6
00:56:51.000 : ru:Chapter 7
01:15:34.000 : ru:Chapter 8
01:35:09.000 : ru:Chapter 9
Скриншоты
Скачать

Скачать торрент!

Как скачивать? · Что такое торрент? · Рейтинг и ограничения

Сайт не распространяет и не хранит электронные версии произведений, а лишь предоставляет доступ к создаваемому пользователями каталогу ссылок на торрент-файлы, которые содержат только списки хеш-сумм

[Профиль] [ЛС]
Показать сообщения:    
Ответить на тему

Текущее время: Сегодня 18:33

Часовой пояс: GMT + 4



Вы не можете начинать темы
Вы не можете отвечать на сообщения
Вы не можете редактировать свои сообщения
Вы не можете удалять свои сообщения
Вы не можете голосовать в опросах
Вы не можете прикреплять файлы к сообщениям
Вы не можете скачивать файлы