Альфонс (Владимир Златоустовский) [1993, комедия, DVDRip]

Ответить на тему
 
Автор Сообщение

user ®

Стаж: 7 лет 7 месяцев

Сообщений: 20008

Пост Пост: #1 от 03-Июн-2015 18:45

[Цитировать]

Альфонс
Жанр: комедия
Год выпуска: 1993
Продолжительность: 01:15:06
Режиссёр: Владимир Златоустовский
В ролях: Александр Панкратов-Черный, Наталья Гундарева, Владимир Ильин, Ирина Розанова, Армен Джигарханян, Наталья Крачковская, Люсьена Овчинникова, Михаил Филиппов, Вадим Захарченко, Татьяна Скороходова...
Описание: Однажды актер Ребров наотрез отказался участвовать в малопристойном спектакле и вылетел, что называется, за дверь. Когда же пришел домой и узнал, что в его семье намечается пополнение, примерный семьянин не расстроился, а организовал кооператив «Сибиряк», где одиноким бездетным женщинам гарантировалось появление прекрасных младенцев.
Ассистентом Реброва стал Вовик, тоже актер-неудачник. Беспросветно пьющий и совершенно равнодушный к женскому полу толстячок будет весьма талантливо исполнять роль экстрасенса до тех пор, пока «Сибиряк» не обратит на себя внимание рэкета и пока не появится в его апартаментах милая женщина с мечтой родить от экстрасенса сынишку.
Доп. информация: 5.1 в исходнике оказалась фейковой, поэтому была перекодирована в стерео.
Сэмпл: http://multi-up.com/1051856
Качество видео: DVDRip [url=http://***/forum/viewtopic.php?t=1562313]Исходник[/url]
Формат видео: AVI
Видео: 688x528 (1.30:1), 25 fps, XviD build 73 ~2396 kbps avg, 0.26 bit/pixel
Аудио: 48 kHz, AC3 Dolby Digital, 2/0 (L,R) ch, ~192 kbps

Сравнение
[url=http://***/forum/viewtopic.php?t=2922078]http://***/forum/viewtopic.php?t=2922078[/url]
http://screenshotcomparison.com/comparison/129779/picture:2
MediaInfo
General
Complete name : D:\Альфонс.avi
Format : AVI
Format/Info : Audio Video Interleave
File size : 1.36 GiB
Duration : 1h 15mn
Overall bit rate : 2 598 Kbps
Writing application : VirtualDubMod 1.5.10.3 (build 2550/release)
Writing library : VirtualDubMod build 2550/release
Video
ID : 0
Format : MPEG-4 Visual
Format profile : Advanced Simple@L5
Format settings, BVOP : 1
Format settings, QPel : No
Format settings, GMC : No warppoints
Format settings, Matrix : Custom
Codec ID : XVID
Codec ID/Hint : XviD
Duration : 1h 15mn
Bit rate : 2 396 Kbps
Width : 688 pixels
Height : 528 pixels
Display aspect ratio : 4:3
Frame rate : 25.000 fps
Color space : YUV
Chroma subsampling : 4:2:0
Bit depth : 8 bits
Scan type : Progressive
Compression mode : Lossy
Bits/(Pixel*Frame) : 0.264
Stream size : 1.26 GiB (92%)
Writing library : XviD 73
Audio
ID : 1
Format : AC-3
Format/Info : Audio Coding 3
Mode extension : CM (complete main)
Format settings, Endianness : Big
Codec ID : 2000
Duration : 1h 15mn
Bit rate mode : Constant
Bit rate : 192 Kbps
Channel(s) : 2 channels
Channel positions : Front: L R
Sampling rate : 48.0 KHz
Bit depth : 16 bits
Compression mode : Lossy
Stream size : 103 MiB (7%)
Alignment : Split accross interleaves
Interleave, duration : 40 ms (1.00 video frame)
Interleave, preload duratio : 500 ms
Скриншоты
Скачать

Скачать торрент!

Как скачивать? · Что такое торрент? · Рейтинг и ограничения

Сайт не распространяет и не хранит электронные версии произведений, а лишь предоставляет доступ к создаваемому пользователями каталогу ссылок на торрент-файлы, которые содержат только списки хеш-сумм

[Профиль] [ЛС]
Показать сообщения:    
Ответить на тему

Текущее время: Сегодня 16:45

Часовой пояс: GMT + 4



Вы не можете начинать темы
Вы не можете отвечать на сообщения
Вы не можете редактировать свои сообщения
Вы не можете удалять свои сообщения
Вы не можете голосовать в опросах
Вы не можете прикреплять файлы к сообщениям
Вы не можете скачивать файлы