Плавание в Мелонию / Resan till Melonia / Voyage to Melonia (Пер Олин / Per Åhlin) [1989, фэнтези, приключения, семейный, DVDRip] VO (Max Nabokov)

Ответить на тему
 
Автор Сообщение

user ®

Стаж: 13 лет

Сообщений: 15041

Пост Пост: #1 от 03-Июн-2015 00:12

[Цитировать]

Плавание в Мелонию / Resan till Melonia / Voyage to Melonia
Страна: Швеция, Норвегия
Жанр: фэнтези, приключения, семейный
Продолжительность: 1:39:52
Год выпуска: 1989
Перевод: Одноголосый закадровый (Max Nabokov)
Русские субтитры: нет
Режиссёр: Пер Олин / Per Åhlin
Роли озвучивали: Олле Сарри, Нилс Эклунд, Ганс Альфредсон, Эрнст Гюнтер, Ян Бломберг, Томас фон Брёмссен, Аллан Эдвалль, Ингвар Челльсон, Ян-Улоф Страндберг, Ева Рюдберг
Описание: Во время кораблекрушения спасается беглец с жуткого острова Плутония, Фердинанд. Волны приносят его к берегу другого, только прекрасного и цветущего jстрова Мелония. Там он знакомиться с добрым волшебником Просперо, его дочерью Мирандой, бесшабашным существом по имени Ариэль и поэтом-романтиком Уильямом. Вместе они решают освободить друзей Фердинанда, которые остались в рабстве на Плутонии у злодеев Слука и Слака.
Доп. информация: На трекере раздается укороченная на полчаса англоязычная версия фильма. Которая имеет весьма странный несоответствующий оригинальным диалогам дубляж и русский перевод соответственно.
Имеется DVD5. Если у кого возникнет желание создать DVD с русской дорожкой, могу предоставить чистый голос.

Семпл: http://multi-up.com/1051710
Качество: DVDRip
Формат: AVI
Видео: Xvid, 720x544, 25fps, 1860kbps
Аудио: Dolby AC3, 48000Hz stereo, 192kbps
Подробные технические данные
GeneralComplete name : D:\MOVIE\Resan till Melonia 1989 Per Åhlin (Max Nabokov).aviFormat : AVIFormat/Info : Audio Video InterleaveFile size : 1.44 GiBDuration : 1h 39mnOverall bit rate : 2 062 KbpsWriting application : VirtualDubMod 1.5.10.2 (build 2540/release)Writing library : VirtualDubMod build 2540/release
VideoID : 0Format : MPEG-4 VisualFormat profile : Advanced Simple@L5Format settings, BVOP : 2Format settings, QPel : NoFormat settings, GMC : No warppointsFormat settings, Matrix : CustomCodec ID : XVIDCodec ID/Hint : XviDDuration : 1h 39mnBit rate : 1 860 KbpsWidth : 720 pixelsHeight : 544 pixelsDisplay aspect ratio : 4:3Frame rate : 25.000 fpsColor space : YUVChroma subsampling : 4:2:0Bit depth : 8 bitsScan type : ProgressiveCompression mode : LossyBits/(Pixel*Frame) : 0.190Stream size : 1.30 GiB (90%)Writing library : XviD 65
AudioID : 1Format : AC-3Format/Info : Audio Coding 3Mode extension : CM (complete main)Format settings, Endianness : BigCodec ID : 2000Duration : 1h 39mnBit rate mode : ConstantBit rate : 192 KbpsChannel(s) : 2 channelsChannel positions : Front: L RSampling rate : 48.0 KHzCompression mode : LossyStream size : 137 MiB (9%)Alignment : Split accross interleavesInterleave, duration : 40 ms (1.00 video frame)Interleave, preload duration : 500 ms
Скриншоты
Скачать

Скачать торрент! Плавание в Мелонию / Resan till Melonia / Voyage to Melonia (Пер Олин / Per Åhlin) [1989, фэнтези, приключения, семейный, DVDRip] VO (Max Nabokov)

Как скачивать? · Что такое торрент? · Рейтинг и ограничения

Сайт не распространяет и не хранит электронные версии произведений, а лишь предоставляет доступ к создаваемому пользователями каталогу ссылок на торрент-файлы, которые содержат только списки хеш-сумм

[Профиль] [ЛС]
Показать сообщения:    
Ответить на тему

Текущее время: Сегодня 19:48

Часовой пояс: GMT + 4



Вы не можете начинать темы
Вы не можете отвечать на сообщения
Вы не можете редактировать свои сообщения
Вы не можете удалять свои сообщения
Вы не можете голосовать в опросах
Вы не можете прикреплять файлы к сообщениям
Вы не можете скачивать файлы