Салемские вампиры / Salem\'s Lot (Тоуб Хупер / Tobe Hooper) [1979, США, ужасы, триллер, детектив, WEB-DL 720p] MVO (Варус видео) + AVO (Иванов) + Sub Eng + Original Eng

Ответить на тему
 
Автор Сообщение

user ®

Стаж: 7 лет 7 месяцев

Сообщений: 20008

Пост Пост: #1 от 03-Июн-2015 00:12

[Цитировать]

Салемские вампиры / Salem's Lot-«The ultimate in terror!»- Страна: США
Студия: Warner Bros. Television
Жанр: ужасы, триллер, детектив
Год выпуска: 1979
Продолжительность: 03:03:05-Перевод 1: Профессиональный (многоголосый закадровый) Варус видео
Перевод 2: Авторский (одноголосый закадровый) Иванов
Cубтитры: английские
Оригинальная аудиодорожка: английский-Режиссер: Тоуб Хупер / Tobe Hooper-В ролях: Дэвид Соул, Джеймс Мейсон, Лэнс Кервин, Бонни Беделиа, Лью Эйрз, Джули Кобб, Элиша Кук мл., Джордж Дзундза, Эд Флэндерс, Кларисса Кайе-Мейсон
Описание: Бен Мейрс, успешный романист, возвращается домой в Салемс лот после многих лет отсутствия. Мейрс видит зловещий дом Марстенов, где у него был неприятный эпизод, когда он был ребенком. Дом теперь был куплен антикварами, Страйкером и его загадочным партнером Барлоу.
Когда местные жители начинают исчезать, затем возвращаясь, превратившись в вампиров, Мейрс начинает подозревать, что Барлоу и Страйкер представляют собой совсем не то, чем они кажутся.-Доп. информация: Видео найдено в сети. Дорожки взяты [url=http://***/forum/viewtopic.php?t=4078972]отсюда[/url]: спасибо formally-
Тип релиза: WEB-DL 720p
Контейнер: MKV
Видео: H.264 | 982x720 | 23.976 fps | 3812 кб/с
Аудио 1: Русский | AC3, 2 ch | 192 kb/s | 48,0 kHz - Варус видео
Аудио 2: Русский | AC3, 2 ch | 192 kb/s | 48,0 kHz - Иванов
Аудио 3: Английский | AC3, 2 ch | 192 kb/s | 48,0 kHz
Формат субтитров: softsub (SRT)
MediaInfo
General
Unique ID : 231382859976873689826850636515775548985 (0xAE12B7C5FBD5CF4599E6B28D0A0F0E39)
Complete name : I:\Хранение\Salems.Lot.1979.720p.WEB-DL.MVO.AVO.ENG.H264-ViGi.mkv
Format : Matroska
Format version : Version 2
File size : 5.73 GiB
Duration : 3h 3mn
Overall bit rate : 4 477 Kbps
Encoded date : UTC 2015-05-30 06:22:57
Writing application : mkvmerge v4.3.0 ('Escape from the Island') сборка от Sep 5 2010 10:30:51
Writing library : libebml v1.0.0 + libmatroska v1.0.0
DURATION : 02:59:52.258000000
NUMBER_OF_FRAMES : 1616
NUMBER_OF_BYTES : 43524
_STATISTICS_WRITING_APP : mkvmerge v7.4.0 ('Circles') 32bit built on Dec 12 2014 12:10:09
_STATISTICS_WRITING_DATE_UTC : 2014-12-13 14:09:35
_STATISTICS_TAGS : BPS DURATION NUMBER_OF_FRAMES NUMBER_OF_BYTES
Video
ID : 1
Format : AVC
Format/Info : Advanced Video Codec
Format profile : High@L3.1
Format settings, CABAC : No
Format settings, ReFrames : 2 frames
Codec ID : V_MPEG4/ISO/AVC
Duration : 3h 3mn
Bit rate : 3 812 Kbps
Width : 982 pixels
Height : 720 pixels
Display aspect ratio : 4:3
Frame rate : 23.976 fps
Color space : YUV
Chroma subsampling : 4:2:0
Bit depth : 8 bits
Scan type : Progressive
Bits/(Pixel*Frame) : 0.225
Stream size : 4.87 GiB (85%)
Language : English
Default : Yes
Forced : No
Color primaries : BT.709-5, BT.1361, IEC 61966-2-4, SMPTE RP177
Transfer characteristics : BT.709-5, BT.1361
Matrix coefficients : BT.709-5, BT.1361, IEC 61966-2-4 709, SMPTE RP177
Audio #1
ID : 2
Format : AC-3
Format/Info : Audio Coding 3
Mode extension : CM (complete main)
Muxing mode : Header stripping
Codec ID : A_AC3
Duration : 3h 3mn
Bit rate mode : Constant
Bit rate : 192 Kbps
Channel(s) : 2 channels
Channel positions : Front: L R
Sampling rate : 48.0 KHz
Bit depth : 16 bits
Compression mode : Lossy
Stream size : 251 MiB (4%)
Title : MVO Варус видео
Language : Russian
Default : Yes
Forced : No
Audio #2
ID : 3
Format : AC-3
Format/Info : Audio Coding 3
Mode extension : CM (complete main)
Muxing mode : Header stripping
Codec ID : A_AC3
Duration : 3h 3mn
Bit rate mode : Constant
Bit rate : 192 Kbps
Channel(s) : 2 channels
Channel positions : Front: L R
Sampling rate : 48.0 KHz
Bit depth : 16 bits
Compression mode : Lossy
Stream size : 251 MiB (4%)
Title : AVO Иванов
Language : Russian
Default : No
Forced : No
Audio #3
ID : 4
Format : AC-3
Format/Info : Audio Coding 3
Mode extension : CM (complete main)
Muxing mode : Header stripping
Codec ID : A_AC3
Duration : 3h 3mn
Bit rate mode : Constant
Bit rate : 192 Kbps
Channel(s) : 2 channels
Channel positions : Front: L R
Sampling rate : 48.0 KHz
Bit depth : 16 bits
Compression mode : Lossy
Stream size : 251 MiB (4%)
Language : English
Default : No
Forced : No
Text
ID : 5
Format : UTF-8
Codec ID : S_TEXT/UTF8
Codec ID/Info : UTF-8 Plain Text
Language : English
Default : Yes
Forced : No
Menu
00:00:00.000 : en:Chapter 1
00:02:48.000 : en:Chapter 2
00:05:22.000 : en:Chapter 3
00:10:02.000 : en:Chapter 4
00:12:29.000 : en:Chapter 5
00:14:51.000 : en:Chapter 6
00:18:34.000 : en:Chapter 7
00:21:23.000 : en:Chapter 8
00:25:04.000 : en:Chapter 9
00:31:40.000 : en:Chapter 10
00:34:50.000 : en:Chapter 11
00:38:50.000 : en:Chapter 12
00:42:29.000 : en:Chapter 13
00:47:37.000 : en:Chapter 14
00:50:49.000 : en:Chapter 15
00:51:52.000 : en:Chapter 16
00:55:09.000 : en:Chapter 17
00:58:21.000 : en:Chapter 18
01:03:12.000 : en:Chapter 19
01:07:55.000 : en:Chapter 20
01:12:05.000 : en:Chapter 21
01:18:27.000 : en:Chapter 22
01:21:42.000 : en:Chapter 23
01:27:57.000 : en:Chapter 24
01:33:37.000 : en:Chapter 25
01:38:45.000 : en:Chapter 26
01:41:33.000 : en:Chapter 27
01:46:07.000 : en:Chapter 28
01:50:08.000 : en:Chapter 29
01:55:45.000 : en:Chapter 30
01:58:47.000 : en:Chapter 31
02:00:44.000 : en:Chapter 32
02:05:30.000 : en:Chapter 33
02:06:30.000 : en:Chapter 34
02:10:19.000 : en:Chapter 35
02:15:19.000 : en:Chapter 36
02:19:43.000 : en:Chapter 37
02:24:05.000 : en:Chapter 38
02:27:11.000 : en:Chapter 39
02:33:26.000 : en:Chapter 40
02:36:18.000 : en:Chapter 41
02:40:42.000 : en:Chapter 42
02:45:06.000 : en:Chapter 43
02:47:12.000 : en:Chapter 44
02:50:06.000 : en:Chapter 45
02:52:41.000 : en:Chapter 46
02:55:25.000 : en:Chapter 47
03:02:08.000 : en:Chapter 48
Скриншоты
Скачать

Скачать торрент!

Как скачивать? · Что такое торрент? · Рейтинг и ограничения

Сайт не распространяет и не хранит электронные версии произведений, а лишь предоставляет доступ к создаваемому пользователями каталогу ссылок на торрент-файлы, которые содержат только списки хеш-сумм

[Профиль] [ЛС]
Показать сообщения:    
Ответить на тему

Текущее время: Сегодня 04:01

Часовой пояс: GMT + 4



Вы не можете начинать темы
Вы не можете отвечать на сообщения
Вы не можете редактировать свои сообщения
Вы не можете удалять свои сообщения
Вы не можете голосовать в опросах
Вы не можете прикреплять файлы к сообщениям
Вы не можете скачивать файлы