Кредо убийцы / Assassin\'s Game (Ануп Ранги / Anoop Rangi ) [2015, США, боевик, DVDRip] DVO

Ответить на тему
 
Автор Сообщение

user ®

Стаж: 7 лет 7 месяцев

Сообщений: 20008

Пост Пост: #1 от 02-Июн-2015 11:48

[Цитировать]

Кредо убийцы / Assassin's Game-- Страна: США
Жанр: боевик
Год выпуска: 2015
Студия: Formula Features
Продолжительность: 01:23:08
Перевод: Любительский (двухголосый закадровый)
Cубтитры: нет
Режиссер: Ануп Ранги / Anoop Rangi
В ролях: Том Сайзмор, Вивика А. Фокс, Бай Лин, Марк Микита, Крис Джай Алекс, Мелисса Марс, Джордан Канн, Трип Ло
Описание: Бывший убийца Вет Джонс вынужден вернутся к своему прошлому наемного убийцы, чтобы спасти жизнь своего сына Джуниора, который пошел по следам отца и сам стал убийцей. После того как он не смог убить красавицу, его собственные заказчики держат его в плену, требуя от отца сделать работу за сына, иначе Джуниор умрет. Джонс начинает серьезную физическую подготовку, чтобы завершить задание сына и таким образом спасти его от неминуемой смерти, но вскоре его совесть вынуждает его оказаться между желанием спасти сына и защитить девушку, к которой у него неожиданно появляется чувство...
Сэмпл
Качество видео: DVDRip
Формат видео: AVI
Видео: Xvid, 720x368, 1914 Кбит/с
Аудио: Русский: AC3, 2 ch, 128 Кбит/с / Английский: AC3, 6 ch, 448 Кбит/с
MediaInfo
Формат : AVI
Формат/Информация : Audio Video Interleave
Профиль формата : OpenDML
Размер файла : 1,46 Гбайт
Продолжительность : 1 ч. 23 м.
Общий поток : 2509 Кбит/сек
Программа кодирования : XviD4PSP 6.0 / 54.29.105
Видео
Идентификатор : 0
Формат : MPEG-4 Visual
Профиль формата : Advanced Simple@L5
Параметр BVOP формата : 1
Параметр QPel формата : Нет
Параметр GMC формата : Без точки перехода
Параметр матрицы формата : Default (H.263)
Идентификатор кодека : XVID
Идентификатор кодека/Подсказка : XviD
Продолжительность : 1 ч. 23 м.
Битрейт : 1914 Кбит/сек
Ширина : 720 пикселей
Высота : 368 пикселей
Соотношение сторон : 1,957
Частота кадров : 23,976 кадра/сек
Цветовое пространство : YUV
Субдискретизация насыщенности : 4:2:0
Битовая глубина : 8 бит
Тип развёртки : Прогрессивная
Метод сжатия : С потерями
Бит/(Пиксели*Кадры) : 0.301
Размер потока : 1,11 Гбайт (76%)
Библиотека кодирования : XviD 64
Аудио #1
Идентификатор : 1
Формат : AC-3
Формат/Информация : Audio Coding 3
Расширение режима : CM (complete main)
Параметр Endianness формата : Big
Идентификатор кодека : 2000
Продолжительность : 1 ч. 23 м.
Вид битрейта : Постоянный
Битрейт : 128 Кбит/сек
Каналы : 2 канала
Расположение каналов : Front: L R
Частота : 48,0 КГц
Битовая глубина : 16 бит
Метод сжатия : С потерями
Размер потока : 76,1 Мбайт (5%)
Выравнивание : Соединение по промежуткам
Продолжительность промежутка : 32 мс. (0,77 видеокадр)
Аудио #2
Идентификатор : 2
Формат : AC-3
Формат/Информация : Audio Coding 3
Расширение режима : CM (complete main)
Параметр Endianness формата : Big
Идентификатор кодека : 2000
Продолжительность : 1 ч. 23 м.
Вид битрейта : Постоянный
Битрейт : 448 Кбит/сек
Каналы : 6 каналов
Расположение каналов : Front: L C R, Side: L R, LFE
Частота : 48,0 КГц
Битовая глубина : 16 бит
Метод сжатия : С потерями
Размер потока : 266 Мбайт (18%)
Выравнивание : Соединение по промежуткам
Продолжительность промежутка : 32 мс. (0,77 видеокадр)
Скриншот c названием фильма Скриншоты
Скачать

Скачать торрент!

Как скачивать? · Что такое торрент? · Рейтинг и ограничения

Сайт не распространяет и не хранит электронные версии произведений, а лишь предоставляет доступ к создаваемому пользователями каталогу ссылок на торрент-файлы, которые содержат только списки хеш-сумм

[Профиль] [ЛС]
Показать сообщения:    
Ответить на тему

Текущее время: Сегодня 00:05

Часовой пояс: GMT + 4



Вы не можете начинать темы
Вы не можете отвечать на сообщения
Вы не можете редактировать свои сообщения
Вы не можете удалять свои сообщения
Вы не можете голосовать в опросах
Вы не можете прикреплять файлы к сообщениям
Вы не можете скачивать файлы