Пятьдесят оттенков серого / Fifty Shades of Grey (Сэм Тейлор-Джонсон / Sam Taylor-Johnson) [2015, США, драма, мелодрама, BDRip 720p] [Unrated Cut] Dub + Sub Rus, Ukr, Eng + Original Eng

Ответить на тему
 
Автор Сообщение

user ®

Стаж: 7 лет 7 месяцев

Сообщений: 20008

Пост Пост: #1 от 02-Июн-2015 02:27

[Цитировать]

Пятьдесят оттенков серого / Fifty Shades of Grey / [Unrated Cut] Страна: США
Студия: Focus Features, Michael De Luca Productions, Trigger Street Productions
Жанр: драма, мелодрама
Год выпуска: 2015
Продолжительность: 02:08:29
Перевод: Профессиональный (дублированный) Blu-ray CEE
Cубтитры: русские (forced, full), украинские, английские (full, SDH)
Оригинальная аудиодорожка: английский
Режиссер: Сэм Тейлор-Джонсон / Sam Taylor-Johnson
В ролях: Джейми Дорнан, Дакота Джонсон, Дженнифер Или, Люк Граймс, Виктор Расук, Элоиза Мамфорд, Марша Гей, Харден Рита, Ора Макс Мартини Каллум, Кит Ренни
Описание: Анастейша Стил — скромная студентка, живущая вместе с близкой подругой-сокурсницей Кейт. За неделю до выпускного в университете, Анастейша, по просьбе заболевшей Кейт заменить её, берёт интервью у молодого красавца-миллиардера Кристиана Грея. Интервью складывается не очень удачно, и Анастейша не думает, что они когда-либо встретятся вновь. Неожиданно Грей появляется в хозяйственном магазине, где девушка работает продавцом. Их знакомство продолжается, и Анастейша постепенно узнаёт о тайных сексуальных увлечениях богача…

Тип релиза: BDRip 720p [TayTO]
Контейнер: MKV
Видео: AVC, 1280x534, 6435Kbps, 23.976 fps
Аудио 1: Russian: 48 kHz, DTS, 3/2 (L,C,R,l,r) + LFE ch, ~768.00 kbps avg |Blu-ray CEE|
Аудио 2: English: 48 kHz, AC3, 3/2 (L,C,R,l,r) + LFE ch, ~640.00 kbps |Original|
Чаптеры: есть

x264 log
x264 [info]: frame I:1517 Avg QP:10.21 size:130703
x264 [info]: frame P:36771 Avg QP:11.26 size: 64235
x264 [info]: frame B:146559 Avg QP:12.02 size: 28572
x264 [info]: consecutive B-frames: 1.4% 2.1% 7.8% 11.0% 16.0% 46.8% 7.7% 2.5% 2.2% 0.8% 1.7%
encoded 184847 frames, 8.939 fps, 7001.80 kb/s, 6435.1 MB
MediaInfo
General
Unique ID : 206797414234019923804827201009791392950 (0x9B93BBB63D7ECE119E37BEB76E65DCB6)
Complete name : D:\рипы\Fifty.Shades.of.Grey.2015.Unrated.720p.BluRay.DD5.1 x264-Talian-.mkv
Format : Matroska
Format version : Version 2
File size : 7.55 GiB
Duration : 2h 8mn
Overall bit rate : 8 413 Kbps
Movie name : Fifty Shades of Grey-Talian-
Encoded date : UTC 2015-05-30 07:52:13
Writing application : mkvmerge v5.7.0 ('The Whirlwind') built on Jul 8 2012 20:08:51
Writing library : libebml v1.2.3 + libmatroska v1.3.0
Attachment : Yes
Video
ID : 1
Format : AVC
Format/Info : Advanced Video Codec
Format profile : High@L4.1
Format settings, CABAC : Yes
Format settings, ReFrames : 12 frames
Codec ID : V_MPEG4/ISO/AVC
Duration : 2h 8mn
Bit rate : 6 451 Kbps
Width : 1 280 pixels
Height : 534 pixels
Display aspect ratio : 2.40:1
Frame rate : 23.976 fps
Color space : YUV
Chroma subsampling : 4:2:0
Bit depth : 8 bits
Scan type : Progressive
Bits/(Pixel*Frame) : 0.418
Stream size : 6.15 GiB (81%)
Title : TayTO
Writing library : x264 core 142 r2431+42 c69a006 tMod [8-bit@all X86_64]
Encoding settings : cabac=1 / ref=12 / deblock=1:-3:-3 / analyse=0x3:0x133 / me=umh / subme=11 / psy=1 / fade_compensate=0.00 / psy_rd=1.00:0.00 / mixed_ref=1 / me_range=32 / chroma_me=1 / trellis=2 / 8x8dct=1 / cqm=0 / deadzone=21,11 / fast_pskip=1 / chroma_qp_offset=-2 / threads=12 / lookahead_threads=3 / sliced_threads=0 / nr=0 / decimate=0 / interlaced=0 / bluray_compat=0 / constrained_intra=0 / fgo=0 / bframes=10 / b_pyramid=2 / b_adapt=2 / b_bias=0 / direct=3 / weightb=1 / open_gop=0 / weightp=2 / keyint=250 / keyint_min=23 / scenecut=40 / intra_refresh=0 / rc_lookahead=60 / rc=crf / mbtree=0 / crf=13.5000 / qcomp=0.65 / qpmin=0:0:0 / qpmax=69:69:69 / qpstep=4 / vbv_maxrate=62500 / vbv_bufsize=78125 / crf_max=0.0 / nal_hrd=none / filler=0 / ip_ratio=1.22 / pb_ratio=1.18 / aq=1:0.75 / aq-sensitivity=10.00 / aq-factor=1.00:1.00:1.00 / aq2=0 / aq3=0 / zones=1420,1491,crf=12/175001,184846,crf=16
Language : English
Default : Yes
Forced : No
Matrix coefficients : BT.709-5, BT.1361, IEC 61966-2-4 709, SMPTE RP177
Audio #1
ID : 2
Format : DTS
Format/Info : Digital Theater Systems
Codec ID : A_DTS
Duration : 2h 8mn
Bit rate mode : Constant
Bit rate : 755 Kbps
Channel(s) : 6 channels
Channel positions : Front: L C R, Side: L R, LFE
Sampling rate : 48.0 KHz
Bit depth : 24 bits
Compression mode : Lossy
Stream size : 693 MiB (9%)
Title : DUB-Blu-ray CEE
Language : Russian
Default : Yes
Forced : No
Audio #2
ID : 3
Format : AC-3
Format/Info : Audio Coding 3
Mode extension : CM (complete main)
Format settings, Endianness : Big
Codec ID : A_AC3
Duration : 2h 8mn
Bit rate mode : Constant
Bit rate : 640 Kbps
Channel(s) : 6 channels
Channel positions : Front: L C R, Side: L R, LFE
Sampling rate : 48.0 KHz
Bit depth : 16 bits
Compression mode : Lossy
Stream size : 588 MiB (8%)
Title : Original
Language : English
Default : No
Forced : No
Text #1
ID : 4
Format : UTF-8
Codec ID : S_TEXT/UTF8
Codec ID/Info : UTF-8 Plain Text
Title : Sub-forced
Language : Russian
Default : Yes
Forced : No
Text #2
ID : 5
Format : UTF-8
Codec ID : S_TEXT/UTF8
Codec ID/Info : UTF-8 Plain Text
Title : Sub-full
Language : Russian
Default : No
Forced : No
Text #3
ID : 6
Format : UTF-8
Codec ID : S_TEXT/UTF8
Codec ID/Info : UTF-8 Plain Text
Title : Sub-full
Language : Ukrainian
Default : No
Forced : No
Text #4
ID : 7
Format : UTF-8
Codec ID : S_TEXT/UTF8
Codec ID/Info : UTF-8 Plain Text
Title : Sub-full
Language : English
Default : No
Forced : No
Text #5
ID : 8
Format : UTF-8
Codec ID : S_TEXT/UTF8
Codec ID/Info : UTF-8 Plain Text
Title : Sub-SDH
Language : English
Default : No
Forced : No
Menu #1
00:00:00.000 : en:00:00:00.000
00:10:25.917 : en:00:10:25.917
00:14:27.158 : en:00:14:27.158
00:20:30.563 : en:00:20:30.563
00:24:04.318 : en:00:24:04.318
00:29:48.578 : en:00:29:48.578
00:35:06.980 : en:00:35:06.980
00:40:17.957 : en:00:40:17.957
00:46:32.748 : en:00:46:32.748
00:50:21.393 : en:00:50:21.393
00:57:04.212 : en:00:57:04.212
01:02:18.985 : en:01:02:18.985
01:06:49.797 : en:01:06:49.797
01:14:27.088 : en:01:14:27.088
01:22:15.264 : en:01:22:15.264
01:31:10.882 : en:01:31:10.882
01:38:13.804 : en:01:38:13.804
01:46:20.165 : en:01:46:20.165
01:53:18.750 : en:01:53:18.750
02:01:41.419 : en:02:01:41.419
Скриншоты
Source vs Encode


Скачать

Скачать торрент!

Как скачивать? · Что такое торрент? · Рейтинг и ограничения

Сайт не распространяет и не хранит электронные версии произведений, а лишь предоставляет доступ к создаваемому пользователями каталогу ссылок на торрент-файлы, которые содержат только списки хеш-сумм

[Профиль] [ЛС]
Показать сообщения:    
Ответить на тему

Текущее время: Сегодня 12:12

Часовой пояс: GMT + 4



Вы не можете начинать темы
Вы не можете отвечать на сообщения
Вы не можете редактировать свои сообщения
Вы не можете удалять свои сообщения
Вы не можете голосовать в опросах
Вы не можете прикреплять файлы к сообщениям
Вы не можете скачивать файлы