Из жизни пернатых (Владимир Дахно) [1985, Рисованный мультфильм, SATRip]

Ответить на тему
 
Автор Сообщение

user ®

Стаж: 7 лет 7 месяцев

Сообщений: 20008

Пост Пост: #1 от 01-Июн-2015 23:21

[Цитировать]

Из жизни пернатых
Страна: СССР
Жанр: Рисованный мультфильм
Продолжительность: 00:09:21
Год выпуска: 1985
Русские субтитры: нет
Режиссёр: Владимир Дахно
Описание: Мультфильм под незатейливым названием «Из жизни пернатых», рассчитан на взрослую публику, его сюжет включает в себя новеллы «Дуэт», «Большая стирка», «Точка зрения» и «Мечты, мечты...»..
Птицы в мульте – это мы с вами и наше окружение. Мультфильм на примере наших пернатых друзей показывает распространенные глупости и ошибки нашего общества. Смотрите, смейтесь от души!
Доп. информация:
«Киевнаучфильм»
Сценаристы: М Татарский
Композиторы: В. Губа
Релиз группы:
Исходник для рипа любезно представлен ItarTass
Качество: SATRip
Формат: AVI
Видео: 704x528 (1.33:1), 25 fps, XviD MPEG-4 ~2100 kbps avg, 0.23 bit/pixel
Аудио: 48 kHz, AC3 Dolby Digital, 1/0 (C) ch, ~128.00 kbps avg
Субтитры: нет
Подробные технические данные
Format : AVIFormat/Info : Audio Video InterleaveFile size : 150 MiBDuration : 9mn 21sOverall bit rate : 2 239 KbpsWriting application : VirtualDubModRus 1.5.10.2 (build 2542/release)Copyright : Rutracker.orgComment : SATRip by dvdss
VideoID : 0Format : MPEG-4 VisualFormat profile : Advanced Simple@L5Format settings, BVOP : 2Format settings, QPel : NoFormat settings, GMC : No warppointsFormat settings, Matrix : CustomCodec ID : XVIDCodec ID/Hint : XviDDuration : 9mn 21sBit rate : 2 101 KbpsWidth : 704 pixelsHeight : 528 pixelsDisplay aspect ratio : 5:4Original display aspect ratio : 4:3Frame rate : 25.000 fpsColor space : YUVChroma subsampling : 4:2:0Bit depth : 8 bitsScan type : ProgressiveCompression mode : LossyBits/(Pixel*Frame) : 0.226Stream size : 141 MiB (94%)Writing library : XviD 65
AudioID : 1Format : AC-3Format/Info : Audio Coding 3Mode extension : CM (complete main)Format settings, Endianness : BigCodec ID : 2000Duration : 9mn 21sBit rate mode : ConstantBit rate : 128 KbpsChannel(s) : 1 channelChannel positions : Front: CSampling rate : 48.0 KHzBit depth : 16 bitsCompression mode : LossyStream size : 8.56 MiB (6%)Alignment : Split accross interleavesInterleave, duration : 40 ms (1.00 video frame)Interleave, preload duration : 500 ms
Скриншоты
Скачать

Скачать торрент!

Как скачивать? · Что такое торрент? · Рейтинг и ограничения

Сайт не распространяет и не хранит электронные версии произведений, а лишь предоставляет доступ к создаваемому пользователями каталогу ссылок на торрент-файлы, которые содержат только списки хеш-сумм

[Профиль] [ЛС]
Показать сообщения:    
Ответить на тему

Текущее время: Сегодня 15:34

Часовой пояс: GMT + 4



Вы не можете начинать темы
Вы не можете отвечать на сообщения
Вы не можете редактировать свои сообщения
Вы не можете удалять свои сообщения
Вы не можете голосовать в опросах
Вы не можете прикреплять файлы к сообщениям
Вы не можете скачивать файлы