Алюминиевые человечки / Tin Men (Барри Левинсон / Barry Levinson) [1987, США, драма, мелодрама, комедия, WEB-DL 720p] MVO + DVO + Sub Eng + Original Eng

Ответить на тему
 
Автор Сообщение

user ®

Стаж: 7 лет 7 месяцев

Сообщений: 20008

Пост Пост: #1 от 01-Июн-2015 01:42

[Цитировать]

Алюминиевые человечки / Tin Men Страна: США
Студия: Bandai Films, Silver Screen Partners III, Touchstone Pictures
Жанр: драма, мелодрама, комедия
Год выпуска: 1987
Продолжительность: 01:52:20
Перевод 1: Профессиональный (многоголосый закадровый) [по заказу 1 канала]
Перевод 2: Профессиональный (двухголосый закадровый)
Cубтитры: английские (с текстом песен)
Оригинальная аудиодорожка: английский
Режиссер: Барри Левинсон / Barry Levinson
В ролях: Ричард Дрейфусс, Дэнни ДеВито, Барбара Херши, Джон Махони, Джеки Гэйл, Стэнли Брок, Сеймур Кэссел, Бруно Кёрби, Дж.Т. Уолш, Ричард Портноу, Мэтт Крэвен, Алан Блюменфилд, Брэд Салливан, Майкл Такер, Дирдри О’Коннелл, Шила МакКоли, Майкл Уиллис, Пенни Николс, Сьюзэн Дюваль, Ральф Табакин, Уолт Макферсон, Кэтлин Голдпо, ♪ Роланд Гифт ♪ ( ♫ Fine Young Cannibals ♫ )
Описание: Бил «ББ» Бабовский и Эрнест Тилли могли никогда не встретиться в этой жизни. Но судьба распорядилась иначе: благодаря автомобильной аварии их пути пересекаются. Но этого мало.
Оказывается, что они — конкуренты, производители отделочных материалов из алюминия. Этого всего оказалось вполне достаточно, чтобы между ними началась настоящая война.- -Тип релиза: WEB-DL 720p
Контейнер: MKV
Видео: MPEG-4 AVC Video, 1280x692 / 1,85:1 (16:9) / ~3936 kbps / 23,976 fps / High@L3.1
Аудио 1: Russian: AC3, 2.0 ch, 192 kbps, 48 kHz | многоголосый - [url=http://***/forum/viewtopic.php?t=2688660]StudioRAK[/url]
Аудио 2: Russian: AC3, 2.0 ch, 192 kbps, 48 kHz | двухголосый - [url=http://***/forum/viewtopic.php?t=1959892]Sblanco[/url]
Аудио 3: English: AC3, 6 ch, 384 kbps, 48 kHz
Формат субтитров: softsub (SRT)
Главы: подписаны (eng)
MediaInfo
Общее
Уникальный идентификатор : 222575262308022775589764297722802205685 (0xA7726FAE773D17818A5790DE4BB7F3F5)
Полное имя : N:\Алюминиевые человечки 1987.WEB-DL.720p.ПМ.ПД.Eng.mkv
Формат : Matroska
Версия формата : Version 4 / Version 2
Размер файла : 3,77 Гбайт
Продолжительность : 1 ч. 52 м.
Общий поток : 4799 Кбит/сек
Название фильма : Tin Men (1987)
Дата кодирования : UTC 2015-05-31 13:48:16
Программа кодирования : mkvmerge v7.8.0 ('River Man') 32bit built on Mar 27 2015 16:18:02
Библиотека кодирования : libebml v1.3.1 + libmatroska v1.4.2
Видео
Идентификатор : 1
Формат : AVC
Формат/Информация : Advanced Video Codec
Профиль формата : High@L3.1
Параметр CABAC формата : Нет
Параметр ReFrames формата : 2 кадра
Идентификатор кодека : V_MPEG4/ISO/AVC
Продолжительность : 1 ч. 52 м.
Битрейт : 3936 Кбит/сек
Ширина : 1280 пикселей
Высота : 692 пикселя
Соотношение сторон : 1,85:1
Режим частоты кадров : Постоянный
Частота кадров : 23,976 кадра/сек
Цветовое пространство : YUV
Субдискретизация насыщенности : 4:2:0
Битовая глубина : 8 бит
Тип развёртки : Прогрессивная
Бит/(Пиксели*Кадры) : 0.185
Размер потока : 3,09 Гбайт (82%)
Язык : English
Default : Да
Forced : Нет
Основные цвета : BT.709
Характеристики трансфера : BT.709
Коэффициенты матрицы : BT.709
colour_range : Limited
Аудио #1
Идентификатор : 2
Формат : AC-3
Формат/Информация : Audio Coding 3
Расширение режима : CM (complete main)
Параметр Endianness формата : Big
Идентификатор кодека : A_AC3
Продолжительность : 1 ч. 52 м.
Вид битрейта : Постоянный
Битрейт : 192 Кбит/сек
Каналы : 2 канала
Расположение каналов : Front: L R
Частота : 48,0 КГц
Битовая глубина : 16 бит
Метод сжатия : С потерями
Размер потока : 154 Мбайт (4%)
Заголовок : AC3 2.0ch 192kbps - многоголосый (по заказу 1 канала)
Язык : Russian
Default : Да
Forced : Нет
Аудио #2
Идентификатор : 3
Формат : AC-3
Формат/Информация : Audio Coding 3
Расширение режима : CM (complete main)
Параметр Endianness формата : Big
Идентификатор кодека : A_AC3
Продолжительность : 1 ч. 52 м.
Вид битрейта : Постоянный
Битрейт : 192 Кбит/сек
Каналы : 2 канала
Расположение каналов : Front: L R
Частота : 48,0 КГц
Битовая глубина : 16 бит
Метод сжатия : С потерями
Размер потока : 154 Мбайт (4%)
Заголовок : AC3 2.0ch 192kbps - двухголосый
Язык : Russian
Default : Нет
Forced : Нет
Аудио #3
Идентификатор : 4
Формат : AC-3
Формат/Информация : Audio Coding 3
Расширение режима : CM (complete main)
Параметр Endianness формата : Big
Идентификатор кодека : A_AC3
Продолжительность : 1 ч. 52 м.
Вид битрейта : Постоянный
Битрейт : 384 Кбит/сек
Каналы : 6 каналов
Расположение каналов : Front: L C R, Side: L R, LFE
Частота : 48,0 КГц
Битовая глубина : 16 бит
Метод сжатия : С потерями
Размер потока : 309 Мбайт (8%)
Заголовок : AC3 6ch 384kbps - original
Язык : English
Default : Нет
Forced : Нет
Текст
Идентификатор : 5
Формат : UTF-8
Идентификатор кодека : S_TEXT/UTF8
Идентификатор кодека/Информация : UTF-8 Plain Text
Язык : English
Default : Нет
Forced : Нет
Меню
00:00:00.000 : en:Opening titles/cadillacs collide
00:07:02.000 : en:Aluminum siding
00:16:50.000 : en:Playing tit for tat
00:27:44.000 : en:Hardball
00:37:17.000 : en:Mrs. Tilley
00:45:36.000 : en:Minor annoyances
00:55:02.000 : en:Not another tin man
01:04:30.000 : en:Eggs and tomatoes
01:14:51.000 : en:You can't eat good times
01:21:40.000 : en:Nora and BB
01:29:39.000 : en:Evidence
01:32:03.000 : en:Not that honorable
01:42:05.000 : en:Home improvement commission
01:49:18.000 : en:End credits
Скриншоты

Доп
Скачать

Скачать торрент!

Как скачивать? · Что такое торрент? · Рейтинг и ограничения

Сайт не распространяет и не хранит электронные версии произведений, а лишь предоставляет доступ к создаваемому пользователями каталогу ссылок на торрент-файлы, которые содержат только списки хеш-сумм

[Профиль] [ЛС]
Показать сообщения:    
Ответить на тему

Текущее время: Сегодня 06:00

Часовой пояс: GMT + 4



Вы не можете начинать темы
Вы не можете отвечать на сообщения
Вы не можете редактировать свои сообщения
Вы не можете удалять свои сообщения
Вы не можете голосовать в опросах
Вы не можете прикреплять файлы к сообщениям
Вы не можете скачивать файлы