Спасение Линкольна / Saving Lincoln (Сальвадор Литвак / Salvador Litvak) [2013, США, биография, HDTV 1080i] MVO

Ответить на тему
 
Автор Сообщение

user ®

Стаж: 7 лет 7 месяцев

Сообщений: 20008

Пост Пост: #1 от 01-Июн-2015 01:42

[Цитировать]

Спасение Линкольна / Saving Lincoln
Страна: США
Жанр: биография
Год выпуска: 2013
Продолжительность: 01:38:04
Перевод: Профессиональный (многоголосый закадровый)
Cубтитры: нет
Режиссер: Сальвадор Литвак / Salvador Litvak
В ролях: Том Амандес, Лиа Коко, Пенелопа Энн Миллер, Брюс Дэвисон, Крид Брэттон, Сайда Аррика Экулона, Джош Стэмберг, Роберт Крэйгхед, Лью Темпл, Майкл Мейзе
Описание: Картина, основанная на подлинной, но малоизвестной истории Уорда Хилла Леймона, бывшего телохранителем президента Авраама Линкольна.
Леймон охранял президента во время гражданской войны и сумел предотвратить несколько покушений на его жизнь. Он стал близким другом Линкольна. За несколько дней до 14 апреля 1865 года, когда Джон Уилкс Бут стрелял в Линкольна, Леймон уехал по поручению президента в штат Вирджиния.
Сэмпл: http://sendfile.su/1123656
Кинопоиск: http://www.kinopoisk.ru/film/611686/
Тип релиза: HDTV 1080i
Контейнер: TS
Видео: AVC/H.264, 1920x1080 (16:9), 6094 Кбит/сек, 25.000 fps
Аудио: русский, MP2, 2ch, 48,0 КГц, 192 Кбит/сек
MediaInfo
Общее
Идентификатор : 1 (0x1)
Полное имя : C:\Users\User\Desktop\Спасение Линкольна.ts
Формат : MPEG-TS
Размер файла : 4,53 Гбайт
Продолжительность : 1 ч. 38 м.
Режим общего битрейта : Переменный
Общий поток : 6615 Кбит/сек
Максимальный общий битрейт : 35,5 Мбит/сек
Видео
Идентификатор : 4113 (0x1011)
Идентификатор меню : 1 (0x1)
Формат : AVC
Формат/Информация : Advanced Video Codec
Профиль формата : Main@L4.0
Параметр CABAC формата : Да
Параметр ReFrames формата : 3 кадра
Идентификатор кодека : 27
Продолжительность : 1 ч. 38 м.
Вид битрейта : Переменный
Битрейт : 6094 Кбит/сек
Максимальный битрейт : 40,0 Мбит/сек
Ширина : 1920 пикселей
Высота : 1080 пикселей
Соотношение сторон : 16:9
Частота кадров : 25,000 кадров/сек
Стандарт вещания : Component
Цветовое пространство : YUV
Субдискретизация насыщенности : 4:2:0
Битовая глубина : 8 бит
Тип развёртки : Чересстрочная
Порядок развёртки : Верхнее поле первое
Бит/(Пиксели*Кадры) : 0.118
Размер потока : 4,17 Гбайт (92%)
colour_range : Limited
Аудио
Идентификатор : 4352 (0x1100)
Идентификатор меню : 1 (0x1)
Формат : MPEG Audio
Версия формата : Version 1
Профиль формата : Layer 2
Идентификатор кодека : 4
Продолжительность : 1 ч. 38 м.
Вид битрейта : Постоянный
Битрейт : 192 Кбит/сек
Каналы : 2 канала
Частота : 48,0 КГц
Метод сжатия : С потерями
Размер потока : 135 Мбайт (3%)
Язык : Russian
Скриншот с названием фильма Скриншоты
Скачать

Скачать торрент!

Как скачивать? · Что такое торрент? · Рейтинг и ограничения

Сайт не распространяет и не хранит электронные версии произведений, а лишь предоставляет доступ к создаваемому пользователями каталогу ссылок на торрент-файлы, которые содержат только списки хеш-сумм

[Профиль] [ЛС]
Показать сообщения:    
Ответить на тему

Текущее время: Сегодня 12:37

Часовой пояс: GMT + 4



Вы не можете начинать темы
Вы не можете отвечать на сообщения
Вы не можете редактировать свои сообщения
Вы не можете удалять свои сообщения
Вы не можете голосовать в опросах
Вы не можете прикреплять файлы к сообщениям
Вы не можете скачивать файлы