Опасное погружение / Pressure (Рон Скальпелло / Ron Scalpello) [2015, Великобритания, Триллер, WEB-DLRip] Dub

Ответить на тему
 
Автор Сообщение

user ®

Стаж: 7 лет 7 месяцев

Сообщений: 20008

Пост Пост: #1 от 31-Май-2015 22:36

[Цитировать]

Опасное погружение / Pressure
«Задержи своё дыхание»
- Год выпуска: 2015
Выпущено: Великобритания / Bigscope Films
Жанр: триллер
Продолжительность: 01:31:14
Перевод: Профессиональный (полное дублирование)
Cубтитры: нет-Режиссер:
Рон Скальпелло / Ron Scalpello-В ролях:
Дэнни Хьюстон (Engel), Мэттью Гуд (Mitchell), Джо Коул (Jones), Алан МакКенна (Hurst), Йен Пири (Karsen), Дэйзи Лоу (Emily Lou), Гемита Самарра (Lisa), Ричард Битта (Naval Security Officer)-Описание:
Маленькая капсула с четырьмя водолазами застряла на дне восточноафриканских вод на глубине пяти километров. Кислорода с каждым вдохом становится все меньше, а надежда на чудесное спасение тает с каждой минутой. Брошенным на произвол судьбы, им ничего не остается, кроме как попытаться спастись своими силами, полагаясь лишь на собственную храбрость и отчаянное желание выжить.-Релиз групп [url=http://***/forum/viewtopic.php?t=1677970] [/url] | | IMDB | КиноПоиск | Сэмпл |-Качество: WEB-DLRip [WEB-DL | 720p | Uniongang]
Формат: AVI
Видео: 720x384 (1.88:1), 24.000 fps, XviD build 73 ~1889 kbps avg, 0.28 bit/pixel
Аудио: 48 kHz, AC3 Dolby Digital, 3/2 (L,C,R,l,r) + LFE ch, ~384.00 kbps avg - iTunes Russia
-Скриншоты MediaInfo
General
Complete name                            : D:\Opasnoe_pogruzhenie_2015_WEB-DLRip_by_Dalemake.avi
Format                                   : AVI
Format/Info                              : Audio Video Interleave
File size                                : 1.45 GiB
Duration                                 : 1h 31mn
Overall bit rate                         : 2 283 Kbps
Writing application                      : VirtualDubMod 1.5.10.3 | www.virtualdub-fr.org || (build 2550/release)
Writing library                          : VirtualDubMod build 2550/release
Video
ID                                       : 0
Format                                   : MPEG-4 Visual
Format profile                           : Advanced Simple@L5
Format settings, BVOP                    : 1
Format settings, QPel                    : No
Format settings, GMC                     : No warppoints
Format settings, Matrix                  : Custom
Codec ID                                 : XVID
Codec ID/Hint                            : XviD
Duration                                 : 1h 31mn
Bit rate                                 : 1 890 Kbps
Width                                    : 720 pixels
Height                                   : 384 pixels
Display aspect ratio                     : 1.85:1
Frame rate                               : 24.000 fps
Color space                              : YUV
Chroma subsampling                       : 4:2:0
Bit depth                                : 8 bits
Scan type                                : Progressive
Compression mode                         : Lossy
Bits/(Pixel*Frame)                       : 0.285
Stream size                              : 1.20 GiB (83%)
Writing library                          : XviD 73
Audio
ID                                       : 1
Format                                   : AC-3
Format/Info                              : Audio Coding 3
Mode extension                           : CM (complete main)
Format settings, Endianness              : Big
Codec ID                                 : 2000
Duration                                 : 1h 31mn
Bit rate mode                            : Constant
Bit rate                                 : 384 Kbps
Channel(s)                               : 6 channels
Channel positions                        : Front: L C R, Side: L R, LFE
Sampling rate                            : 48.0 KHz
Bit depth                                : 16 bits
Compression mode                         : Lossy
Stream size                              : 251 MiB (17%)
Alignment                                : Split accross interleaves
Interleave, duration                     : 42 ms (1.00 video frame)
Interleave, preload duration             : 500 ms
-
Скачать

Скачать торрент!

Как скачивать? · Что такое торрент? · Рейтинг и ограничения

Сайт не распространяет и не хранит электронные версии произведений, а лишь предоставляет доступ к создаваемому пользователями каталогу ссылок на торрент-файлы, которые содержат только списки хеш-сумм

[Профиль] [ЛС]
Показать сообщения:    
Ответить на тему

Текущее время: Сегодня 22:34

Часовой пояс: GMT + 4



Вы не можете начинать темы
Вы не можете отвечать на сообщения
Вы не можете редактировать свои сообщения
Вы не можете удалять свои сообщения
Вы не можете голосовать в опросах
Вы не можете прикреплять файлы к сообщениям
Вы не можете скачивать файлы