Эффект Лазаря / The Lazarus Effect (Дэвид Гелб / David Gelb) [2015, США, ужасы, триллер, HDRip] Dub (Line) + Original Eng

Ответить на тему
 
Автор Сообщение

user ®

Стаж: 7 лет 7 месяцев

Сообщений: 20008

Пост Пост: #1 от 31-Май-2015 22:36

[Цитировать]

Эффект Лазаря / The Lazarus Effect
Страна: США
Жанр: ужасы, триллер
Год выпуска: 2015
Продолжительность: 01:26:33
Перевод: Профессиональный (дублированный) Line
Cубтитры: нет
Оригинальная аудиодорожка: английский
Режиссер: Дэвид Гелб / David Gelb
В ролях: Марк Дюпласс, Оливия Уайлд, Дональд Гловер, Эван Питерс, Сара Болгер, Рэй Уайз, Скотт Шелдон, Эмили Келавос, Джеймс Эрл, Эми Акино
Описание: Команда любознательных студентов узнает секрет воскрешения людей из мертвых. Однако их открытие приводит к страшным последствиям.
Сэмпл: http://multi-up.com/1050857
Качество видео: HDRip (исходник не известен)
Формат видео: AVI
Видео: Xvid 720x304 23.98fps 1 867 Kbps
Аудио: Dolby AC3 48000Hz stereo 384kbps rus
Аудио 2: Dolby AC3 48000Hz stereo 256kbps eng
MediaInfo
Format : AVI
Format/Info : Audio Video Interleave
File size : 1.47 GiB
Duration : 1h 23mn
Overall bit rate : 2 521 Kbps
Writing application : VirtualDubMod 1.5.10.3 | www.virtualdub-fr.org || (build 2550/release)
Writing library : VirtualDubMod build 2550/release
Video
ID : 0
Format : MPEG-4 Visual
Format profile : Advanced Simple@L5
Format settings, BVOP : Yes
Format settings, QPel : No
Format settings, GMC : No warppoints
Format settings, Matrix : Default (MPEG)
Codec ID : XVID
Codec ID/Hint : XviD
Duration : 1h 23mn
Bit rate : 1 867 Kbps
Width : 720 pixels
Height : 304 pixels
Display aspect ratio : 2.35:1
Frame rate : 23.976 fps
Resolution : 8 bits
Colorimetry : 4:2:0
Scan type : Progressive
Bits/(Pixel*Frame) : 0.356
Stream size : 1.09 GiB (74%)
Writing library : XviD 1.2.1 (UTC 2008-12-04)
Audio #1
ID : 1
Format : AC-3
Format/Info : Audio Coding 3
Codec ID : 2000
Duration : 1h 23mn
Bit rate mode : Constant
Bit rate : 384 Kbps
Channel(s) : 2 channels
Channel positions : L R
Sampling rate : 48.0 KHz
Stream size : 228 MiB (15%)
Alignment : Split accross interleaves
Interleave, duration : 42 ms (1.00 video frame)
Interleave, preload duration : 500 ms
Audio #2
ID : 2
Format : AC-3
Format/Info : Audio Coding 3
Codec ID : 2000
Duration : 1h 23mn
Bit rate mode : Constant
Bit rate : 256 Kbps
Channel(s) : 2 channels
Channel positions : L R
Sampling rate : 48.0 KHz
Stream size : 152 MiB (10%)
Alignment : Split accross interleaves
Interleave, duration : 42 ms (1.00 video frame)
Interleave, preload duration : 500 ms
Скриншот c названием фильма Скриншоты
Скачать

Скачать торрент!

Как скачивать? · Что такое торрент? · Рейтинг и ограничения

Сайт не распространяет и не хранит электронные версии произведений, а лишь предоставляет доступ к создаваемому пользователями каталогу ссылок на торрент-файлы, которые содержат только списки хеш-сумм

[Профиль] [ЛС]
Показать сообщения:    
Ответить на тему

Текущее время: Сегодня 23:45

Часовой пояс: GMT + 4



Вы не можете начинать темы
Вы не можете отвечать на сообщения
Вы не можете редактировать свои сообщения
Вы не можете удалять свои сообщения
Вы не можете голосовать в опросах
Вы не можете прикреплять файлы к сообщениям
Вы не можете скачивать файлы