КостяНика. Время лета (Дмитрий Федоров) [2006, мелодрама, DVDRip]

Ответить на тему
 
Автор Сообщение

user ®

Стаж: 7 лет 7 месяцев

Сообщений: 20008

Пост Пост: #1 от 31-Май-2015 19:30

[Цитировать]

КостяНика. Время лета
Жанр: мелодрама
Год выпуска: 2006
Продолжительность: 01:36:46
Режиссёр: Дмитрий Федоров
В ролях: Ольга Старченкова, Анна Здор, Иван Вакуленко, Любовь Германова, Владимир Симонов, Анна Чурина, Анна Гуляренко, Константин Беличенко, Александр Верединский, Мария Хижняк...
Описание: Лето 1995 года. Подмосковный поселок. Тут, как водится, кипит своя веселая дачная жизнь. Старшеклассники, опьяненные свободой трехмесячных каникул, ведут себя соответственно возрасту. Ежевечерние собрания, громкая музыка из магнитофона, бренчание гитары, легкий флирт. В этой легкомысленной, ни к чему не обязывающей обстановке и рождается настоящее чувство между 15-летней Никой и 16-летним Костей.
Ника — девушка из обеспеченной семьи, ее отец — известный художник. Ее мама умерла, когда девочке было шесть лет, воспитывает Нику гувернантка Полина. У отца молодая жена и, по сути, своя жизнь. Полина — женщина строгая, без особых сантиментов, со своими амбициями. Так что живет девушка в полном материальном достатке, в шикарном коттедже, но с пустотой в душе. Костя оказывается единственным человеком, который понял Нику, смог стать ей другом. Но самое главное, что девушка нездорова и ее недуг еще больше обостряет интригу сюжета.
Доп. информация: У видео плавающий кроп.
Сэмпл: http://multi-up.com/1051321
Качество видео: DVDRip [url=http://***/forum/viewtopic.php?t=143396]Исходник[/url]
Формат видео: AVI
Видео: 688x448 (1.54:1), 25 fps, XviD build 73 ~1944 kbps avg, 0.25 bit/pixel
Аудио: 48 kHz, AC3 Dolby Digital, 2/0 (L,R) ch, ~192 kbps

Сравнение
[url=http://***/forum/viewtopic.php?t=173410]http://***/forum/viewtopic.php?t=173410[/url]
http://screenshotcomparison.com/comparison/129440/picture:2
MediaInfo
General
Complete name : D:\КостяНика. Время лета.avi
Format : AVI
Format/Info : Audio Video Interleave
File size : 1.45 GiB
Duration : 1h 36mn
Overall bit rate : 2 146 Kbps
Writing application : VirtualDubMod 1.5.10.3 (build 2550/release)
Writing library : VirtualDubMod build 2550/release
Video
ID : 0
Format : MPEG-4 Visual
Format profile : Advanced Simple@L5
Format settings, BVOP : 1
Format settings, QPel : No
Format settings, GMC : No warppoints
Format settings, Matrix : Custom
Codec ID : XVID
Codec ID/Hint : XviD
Duration : 1h 36mn
Bit rate : 1 945 Kbps
Width : 688 pixels
Height : 448 pixels
Display aspect ratio : 3:2
Frame rate : 25.000 fps
Color space : YUV
Chroma subsampling : 4:2:0
Bit depth : 8 bits
Scan type : Progressive
Compression mode : Lossy
Bits/(Pixel*Frame) : 0.252
Stream size : 1.31 GiB (91%)
Writing library : XviD 73
Audio
ID : 1
Format : AC-3
Format/Info : Audio Coding 3
Mode extension : CM (complete main)
Format settings, Endianness : Big
Codec ID : 2000
Duration : 1h 36mn
Bit rate mode : Constant
Bit rate : 192 Kbps
Channel(s) : 2 channels
Channel positions : Front: L R
Sampling rate : 48.0 KHz
Bit depth : 16 bits
Compression mode : Lossy
Stream size : 133 MiB (9%)
Alignment : Split accross interleaves
Interleave, duration : 40 ms (1.00 video frame)
Interleave, preload duratio : 500 ms
Скриншоты
Скачать

Скачать торрент!

Как скачивать? · Что такое торрент? · Рейтинг и ограничения

Сайт не распространяет и не хранит электронные версии произведений, а лишь предоставляет доступ к создаваемому пользователями каталогу ссылок на торрент-файлы, которые содержат только списки хеш-сумм

[Профиль] [ЛС]
Показать сообщения:    
Ответить на тему

Текущее время: Сегодня 05:53

Часовой пояс: GMT + 4



Вы не можете начинать темы
Вы не можете отвечать на сообщения
Вы не можете редактировать свои сообщения
Вы не можете удалять свои сообщения
Вы не можете голосовать в опросах
Вы не можете прикреплять файлы к сообщениям
Вы не можете скачивать файлы