Пизанская башня (Юрий Кузьменко) [2010, Украина, мелодрама, HDTV 1080i] + Original Rus

Ответить на тему
 
Автор Сообщение

user ®

Стаж: 7 лет 7 месяцев

Сообщений: 20008

Пост Пост: #1 от 31-Май-2015 16:24

[Цитировать]

Пизанская башня
Страна: Украина
Жанр: мелодрама
Год выпуска: 2010
Продолжительность: 01:35:47
Перевод: Не требуется
Cубтитры: нет
Оригинальная аудиодорожка: русский
Режиссер: Юрий Кузьменко
В ролях: Алёна Бабенко, Николай Фоменко, Лидия Федосеева-Шукшина, Константин Глушков, Александр Горохов (II), Алексей Тимошкин (II), Сергей Лобанов (II), Александр Серов-Останкинский, Игорь Гузун
Описание:
Они живут вместе 20 лет. Муж и жена давно уже не испытывают друг к другу никаких чувств и просто приспособились к такому существованию. Родив сына и оставив любимую работу в библиотеке, жена полностью погружается в домашние заботы: уборка, стирка, готовка...

Сэмпл: http://multi-up.com/1050966
Качество видео: HDTV 1080i
Формат видео: TS
Видео: AVC, 1920x1080, (16:9), 25 fps, 7.4 Mbps
Аудио: Русский, MP2, 48 kHz, 2 ch, 320 kbps
MediaInfo
General
ID : 1 (0x1)
Complete name : C:\Пизанская башня_2010_HDTV 1080i_RU.ts
Format : MPEG-TS
File size : 5.40 GiB
Duration : 1h 35mn
Overall bit rate mode : Variable
Overall bit rate : 8 077 Kbps
Video
ID : 1681 (0x691)
Menu ID : 1680 (0x690)
Format : AVC
Format/Info : Advanced Video Codec
Format profile : Main@L4
Format settings, CABAC : Yes
Format settings, ReFrames : 4 frames
Format settings, GOP : M=4, N=24
Codec ID : 27
Duration : 1h 35mn
Bit rate : 7 354 Kbps
Width : 1 920 pixels
Height : 1 080 pixels
Display aspect ratio : 16:9
Frame rate : 25.000 fps
Color space : YUV
Chroma subsampling : 4:2:0
Bit depth : 8 bits
Scan type : Interlaced
Scan order : Top Field First
Bits/(Pixel*Frame) : 0.142
Stream size : 4.92 GiB (91%)
Color range : Limited
Color primaries : BT.709
Transfer characteristics : BT.709
Matrix coefficients : BT.709
Audio
ID : 1682 (0x692)
Menu ID : 1680 (0x690)
Format : MPEG Audio
Format version : Version 1
Format profile : Layer 2
Codec ID : 3
Duration : 1h 35mn
Bit rate mode : Constant
Bit rate : 320 Kbps
Channel(s) : 2 channels
Sampling rate : 48.0 KHz
Compression mode : Lossy
Delay relative to video : -120ms
Stream size : 219 MiB (4%)
Language : Russian
Скриншот c названием фильма Скриншоты
Скачать

Скачать торрент!

Как скачивать? · Что такое торрент? · Рейтинг и ограничения

Сайт не распространяет и не хранит электронные версии произведений, а лишь предоставляет доступ к создаваемому пользователями каталогу ссылок на торрент-файлы, которые содержат только списки хеш-сумм

[Профиль] [ЛС]
Показать сообщения:    
Ответить на тему

Текущее время: Сегодня 21:56

Часовой пояс: GMT + 4



Вы не можете начинать темы
Вы не можете отвечать на сообщения
Вы не можете редактировать свои сообщения
Вы не можете удалять свои сообщения
Вы не можете голосовать в опросах
Вы не можете прикреплять файлы к сообщениям
Вы не можете скачивать файлы