Суперкласико / Superclásico / Superclasico (Оле Кристиан Мэдсен / Ole Christian Madsen) [2011, Дания, комедия, BDRip 1080p] 2x MVO + Original Dan + Sub Rus, Dan

Ответить на тему
 
Автор Сообщение

user ®

Стаж: 7 лет 7 месяцев

Сообщений: 20008

Пост Пост: #1 от 31-Май-2015 16:24

[Цитировать]

Суперкласико / Superclásico / Superclasico
Страна: Дания
Студия: Nimbus Film Productions, OC Film, Nordisk Film ShortCut, Mainstream ApS
Жанр: Комедия
Год выпуска: 2011
Продолжительность: 01:37:44
Перевод 1: Профессиональный (многоголосый закадровый) - Фирма "Позитив"
Перевод 2: Любительский (многоголосый закадровый) - LexStudio & DreamRecords *
Оригинальная аудиодорожка: датский
Cубтитры: русские *, датские
* - присутствует ненормативная лексика.
Режиссер: Oле Кристиан Мэдсен / Ole Christian Madsen
В ролях: Андерс В. Бертельсен, Паприка Стеэн, Себастьян Эстебанес, Адриана Машалино, Джэми Мортон, Дафне Шилинг, Мигель Дедович, Микаэль Бертельсен (Anders W. Berthelsen, Paprika Steen, Sebastián Estevanez, Adriana Mascialino, Jamie Morton, Dafne Schiling, Miguel Dedovich, Mikael Bertelsen)
Описание: Кристиану следует признать: налаженная жизнь катится к черту, сын-подросток, как многие в его возрасте, не желает общаться с отцом, а торговля элитными винами летит в пропасть из-за того, что основным потребителем товара является он сам. Но самое главное — от Кристиана ушла жена. И не просто ушла, а собирается замуж за… звезду мирового футбола, горячего аргентинского мачо, машину для секса! Какой мужчина в состоянии пережить это и не сойти с ума? В отчаянной попытке вернуть жену Кристиан берет с собой сына и отправляется в Буэнос-Айрес…
Доп. информация: Автор рипа - PhantomDK. Добавлены две русские дорожки: перевод фирмы "Позитив" (по заказу телеагентства "Русский Репортаж"), любезно предоставленная miha2154, и перевод LexStudio & DreamRecords, взятый из [url=http://***/forum/viewtopic.php?t=4100989]раздачи -Leshqa-[/url]. Из той же раздачи взяты русские субтитры (авторы перевода: Volha Samusevich и Юрий Онищенко (Logos71)). Большое спасибо всем предоставившим материалы!
Сэмпл
Тип релиза: BDRip 1080p
Контейнер: MKV
Видео: 1920x816p (2,35:1), 24 fps, x264, 10138 kbps
Аудио 1: Russian - Позитив (Dolby AC3, 2 ch) 192 Kbps / 48 000 Hz
Аудио 2: Russian - LexStudio & DreamRecords (Dolby AC3, 2 ch) 192 Kbps / 48 000 Hz
Аудио 3: Danish (DTS, 6 ch) 1509 Kbps / 48 000 Hz
Субтитры: Russian, Danish
MediaInfo
Уникальный идентификатор : 183613571034708603063848147583166823681 (0x8A22AFFDB7831F2D829AA72C1C3FBD01)
Полное имя : Superclasico.(2011).BDRip.1080p.x264.RUS.AC3.DAN.DTS.Sub.RUS.DAN.mkv
Формат : Matroska
Версия формата : Version 4 / Version 2
Размер файла : 8,20 Гбайт
Продолжительность : 1 ч. 37 м.
Общий поток : 12,0 Мбит/сек
Название фильма : Superclasico (2011) BDRip 1080p
Дата кодирования : UTC 2015-05-30 12:58:37
Программа кодирования : mkvmerge v7.9.0 ('Birds') 32bit
Библиотека кодирования : libebml v1.3.1 + libmatroska v1.4.2
DURATION : 01:31:50.417000000
NUMBER_OF_FRAMES : 837
NUMBER_OF_BYTES : 65598
_STATISTICS_WRITING_APP : mkvmerge v7.9.0 ('Birds') 32bit
_STATISTICS_WRITING_DATE_UTC : 2015-05-30 12:58:37
_STATISTICS_TAGS : BPS DURATION NUMBER_OF_FRAMES NUMBER_OF_BYTES
Видео
Идентификатор : 1
Формат : AVC
Формат/Информация : Advanced Video Codec
Профиль формата : High@L4.1
Параметр CABAC формата : Да
Параметр ReFrames формата : 5 кадров
Идентификатор кодека : V_MPEG4/ISO/AVC
Продолжительность : 1 ч. 37 м.
Битрейт : 10,1 Мбит/сек
Ширина : 1920 пикселей
Высота : 816 пикселей
Соотношение сторон : 2,35:1
Режим частоты кадров : Постоянный
Частота кадров : 24,000 кадра/сек
Цветовое пространство : YUV
Субдискретизация насыщенности : 4:2:0
Битовая глубина : 8 бит
Тип развёртки : Прогрессивная
Бит/(Пиксели*Кадры) : 0.270
Размер потока : 6,75 Гбайт (82%)
Библиотека кодирования : x264 core 146 r2538 121396c
Настройки программы : cabac=1 / ref=5 / deblock=1:-3:-3 / analyse=0x3:0x113 / me=umh / subme=9 / psy=1 / psy_rd=1.00:0.00 / mixed_ref=1 / me_range=32 / chroma_me=1 / trellis=2 / 8x8dct=1 / cqm=0 / deadzone=21,11 / fast_pskip=0 / chroma_qp_offset=-2 / threads=6 / lookahead_threads=1 / sliced_threads=0 / nr=0 / decimate=1 / interlaced=0 / bluray_compat=0 / constrained_intra=0 / bframes=6 / b_pyramid=2 / b_adapt=2 / b_bias=0 / direct=3 / weightb=1 / open_gop=0 / weightp=2 / keyint=240 / keyint_min=24 / scenecut=40 / intra_refresh=0 / rc=2pass / mbtree=0 / bitrate=10138 / ratetol=1.0 / qcomp=0.60 / qpmin=10 / qpmax=51 / qpstep=4 / cplxblur=20.0 / qblur=0.5 / ip_ratio=1.40 / pb_ratio=1.30 / aq=1:1.00
Язык : English
Default : Да
Forced : Нет
DURATION : 01:37:44.292000000
NUMBER_OF_FRAMES : 140743
NUMBER_OF_BYTES : 7418735671
_STATISTICS_WRITING_APP : mkvmerge v7.9.0 ('Birds') 32bit
_STATISTICS_WRITING_DATE_UTC : 2015-05-30 12:58:37
_STATISTICS_TAGS : BPS DURATION NUMBER_OF_FRAMES NUMBER_OF_BYTES
Аудио #1
Идентификатор : 2
Формат : AC-3
Формат/Информация : Audio Coding 3
Расширение режима : CM (complete main)
Параметр Endianness формата : Big
Идентификатор кодека : A_AC3
Продолжительность : 1 ч. 37 м.
Вид битрейта : Постоянный
Битрейт : 192 Кбит/сек
Каналы : 2 канала
Расположение каналов : Front: L R
Частота : 48,0 КГц
Битовая глубина : 16 бит
Метод сжатия : С потерями
Размер потока : 134 Мбайт (2%)
Заголовок : Позитив
Язык : Russian
Default : Да
Forced : Нет
Аудио #2
Идентификатор : 3
Формат : AC-3
Формат/Информация : Audio Coding 3
Расширение режима : CM (complete main)
Параметр Endianness формата : Big
Идентификатор кодека : A_AC3
Продолжительность : 1 ч. 37 м.
Вид битрейта : Постоянный
Битрейт : 192 Кбит/сек
Каналы : 2 канала
Расположение каналов : Front: L R
Частота : 48,0 КГц
Битовая глубина : 16 бит
Метод сжатия : С потерями
Размер потока : 134 Мбайт (2%)
Заголовок : LexStudio & DreamRecords
Язык : Russian
Default : Нет
Forced : Нет
Аудио #3
Идентификатор : 4
Формат : DTS
Формат/Информация : Digital Theater Systems
Режим : 16
Параметр Endianness формата : Big
Идентификатор кодека : A_DTS
Продолжительность : 1 ч. 37 м.
Вид битрейта : Постоянный
Битрейт : 1509 Кбит/сек
Каналы : 6 каналов
Расположение каналов : Front: L C R, Side: L R, LFE
Частота : 48,0 КГц
Битовая глубина : 24 бит
Метод сжатия : С потерями
Размер потока : 1,03 Гбайт (13%)
Заголовок : Original
Язык : Danish
Default : Нет
Forced : Нет
Текст #1
Идентификатор : 5
Формат : UTF-8
Идентификатор кодека : S_TEXT/UTF8
Идентификатор кодека/Информация : UTF-8 Plain Text
Язык : Russian
Default : Нет
Forced : Нет
Текст #2
Идентификатор : 6
Формат : UTF-8
Идентификатор кодека : S_TEXT/UTF8
Идентификатор кодека/Информация : UTF-8 Plain Text
Язык : Danish
Default : Нет
Forced : Нет
Скриншоты
Скачать

Скачать торрент!

Как скачивать? · Что такое торрент? · Рейтинг и ограничения

Сайт не распространяет и не хранит электронные версии произведений, а лишь предоставляет доступ к создаваемому пользователями каталогу ссылок на торрент-файлы, которые содержат только списки хеш-сумм

[Профиль] [ЛС]
Показать сообщения:    
Ответить на тему

Текущее время: Сегодня 02:18

Часовой пояс: GMT + 4



Вы не можете начинать темы
Вы не можете отвечать на сообщения
Вы не можете редактировать свои сообщения
Вы не можете удалять свои сообщения
Вы не можете голосовать в опросах
Вы не можете прикреплять файлы к сообщениям
Вы не можете скачивать файлы