Животное / The Animal (Люк Гринфилд / Luke Greenfield) [2001, США, комедия, WEB-DL 1080p] Dub + MVO + VO (Живов) + 2x Ukr + Original Eng + Sub Rus, Eng

Ответить на тему
 
Автор Сообщение

user ®

Стаж: 7 лет 7 месяцев

Сообщений: 20008

Пост Пост: #1 от 31-Май-2015 13:18

[Цитировать]

Животное / The Animal
«The producing team of 'Big Daddy' has delivered another winner!»
Год выпуска: 2001
Страна: США
Производство: Happy Madison Productions, Revolution Studios
Жанр: Комедия
Продолжительность: 01:19:45
Перевод 1: Дубляж (Невафильм)
Перевод 2: Профессиональный (многоголосый закадровый) (DVD R5)
Перевод 3: Авторский (одноголосый закадровый) (Живов)
Оригинальная аудиодорожка: английский
Субтитры: русские, английские
Режиссёр: Люк Гринфилд
В ролях: Роб Шнайдер, Коллин Хэскелл, Джон К. МакГинли, Эдвард Эснер, Майкл Кейтон, Луис Ломбарди, Гай Торри, Боб Рубин, Пилар Шнайдер, Скотт Уилсон и др.
Описание: Какие только странные пути порой не ведут к исполнению желаний! Простак Марвин всю жизнь мечтал стать крутым полицейским. Но тщетно. Не было счастья, да несчастье помогло: попав в автокатастрофу, герой был спасён от смерти слегка чокнутым доктором Уайлдером.
Вышедшие из строя внутренние органы Марвина тот заменил на органы разных животных, благодаря чему его пациент не только выздоровел, но и обрёл таланты своих доноров. Используя новые возможности, герой наконец становится настоящим суперкопом, но... вместе с отличными рефлексами, силой и выносливостью Марвин получил от зверей и их дремучие инстинкты, внезапно и всегда не вовремя пробуждающиеся!

Источник: HDClub
Сэмпл
Качество: WEB-DL
Формат: MKV
Видео: MPEG-4 AVC: ~10000 kbps / 1920x1080 / 25.000 fps / 16:9
Аудио: Russian: AC3 / 2.0 / 48 kHz / 192 kbps | Дубляж (Невафильм)
Аудио: Russian: AC3 / 5.1 / 48 kHz / 448 kbps | Многоголосый закадровый (DVD R5)
Аудио: Russian: AC3 / 5.1 / 48 kHz / 448 kbps | Живов
Аудио: Ukrainian: AC3 / 2.0 / 48 kHz / 192 kbps | Двухголосый закадровый (Новый канал)
Аудио: Ukrainian: AC3 / 2.0 / 48 kHz / 192 kbps | Двухголосый закадровый (ТЕТ)
Аудио: English: AC3 / 5.1 / 48 kHz / 448 kbps | Оригинал (DVD R5)
MediaInfoXP
GeneralUnique ID : 186328553754684627973994254687176523260 (0x8C2D92F955C7C678B9C0B593FA607DFC)Complete name : F:\The.Animal.2001.1080p.WEB-DL.3xRus.2xUkr.Eng.x264-Amazon.mkvFormat : MatroskaFormat version : Version 4 / Version 2File size : 6.54 GiBDuration : 1h 19mnOverall bit rate : 11.7 MbpsMovie name : Release by spartanec163Encoded date : UTC 2015-05-26 14:02:54Writing application : mkvmerge v7.4.0 ('Circles') 64bit built on Dec 12 2014 12:19:56Writing library : libebml v1.3.0 + libmatroska v1.4.1_STATISTICS_WRITING_APP : mkvmerge v7.4.0 ('Circles') 64bit built on Dec 12 2014 12:19:56_STATISTICS_WRITING_DATE_UTC : 2015-05-26 14:02:54_STATISTICS_TAGS : BPS DURATION NUMBER_OF_FRAMES NUMBER_OF_BYTESDURATION : 01:19:45.664000000NUMBER_OF_FRAMES : 149552NUMBER_OF_BYTES : 114855936
VideoID : 1Format : AVCFormat/Info : Advanced Video CodecFormat profile : High@L4Format settings, CABAC : YesFormat settings, ReFrames : 4 framesCodec ID : V_MPEG4/ISO/AVCDuration : 1h 19mnBit rate mode : ConstantBit rate : 10 000 KbpsWidth : 1 920 pixelsHeight : 1 080 pixelsDisplay aspect ratio : 16:9Frame rate mode : ConstantFrame rate : 25.000 fpsStandard : PALColor space : YUVChroma subsampling : 4:2:0Bit depth : 8 bitsScan type : ProgressiveBits/(Pixel*Frame) : 0.193Stream size : 5.34 GiB (82%)Title : WEB-DL 1080p (Amazon Prime UK)Language : EnglishDefault : YesForced : NoColor range : LimitedColor primaries : BT.709Transfer characteristics : BT.709Matrix coefficients : BT.709
Audio #1ID : 2Format : AC-3Format/Info : Audio Coding 3Mode extension : CM (complete main)Format settings, Endianness : BigCodec ID : A_AC3Duration : 1h 19mnBit rate mode : ConstantBit rate : 192 KbpsChannel(s) : 2 channelsChannel positions : Front: L RSampling rate : 48.0 KHzBit depth : 16 bitsCompression mode : LossyStream size : 110 MiB (2%)Title : AC3 2.0 192Kbps (Дубляж)Language : RussianDefault : YesForced : No
Audio #2ID : 3Format : AC-3Format/Info : Audio Coding 3Mode extension : CM (complete main)Format settings, Endianness : BigCodec ID : A_AC3Duration : 1h 19mnBit rate mode : ConstantBit rate : 448 KbpsChannel(s) : 6 channelsChannel positions : Front: L C R, Side: L R, LFESampling rate : 48.0 KHzBit depth : 16 bitsCompression mode : LossyStream size : 256 MiB (4%)Title : AC3 5.1 448kbps (Профессиональный, многоголосый, DVD R5)Language : RussianDefault : NoForced : No
Audio #3ID : 4Format : AC-3Format/Info : Audio Coding 3Mode extension : CM (complete main)Format settings, Endianness : BigCodec ID : A_AC3Duration : 1h 19mnBit rate mode : ConstantBit rate : 448 KbpsChannel(s) : 6 channelsChannel positions : Front: L C R, Side: L R, LFESampling rate : 48.0 KHzBit depth : 16 bitsCompression mode : LossyStream size : 256 MiB (4%)Title : AC3 5.1 448kbps (Авторский, одноголосый - Ю. Живов)Language : RussianDefault : NoForced : No
Audio #4ID : 5Format : AC-3Format/Info : Audio Coding 3Mode extension : CM (complete main)Format settings, Endianness : BigCodec ID : A_AC3Duration : 1h 19mnBit rate mode : ConstantBit rate : 192 KbpsChannel(s) : 2 channelsChannel positions : Front: L RSampling rate : 48.0 KHzBit depth : 16 bitsCompression mode : LossyStream size : 110 MiB (2%)Title : AC3 2.0 192Kbps (Профессиональный, двухголосый - Новый канал)Language : UkrainianDefault : NoForced : No
Audio #5ID : 6Format : AC-3Format/Info : Audio Coding 3Mode extension : CM (complete main)Format settings, Endianness : BigCodec ID : A_AC3Duration : 1h 19mnBit rate mode : ConstantBit rate : 192 KbpsChannel(s) : 2 channelsChannel positions : Front: L RSampling rate : 48.0 KHzBit depth : 16 bitsCompression mode : LossyStream size : 110 MiB (2%)Title : AC3 2.0 192Kbps (Профессиональный, двухголосый - ТЕТ)Language : UkrainianDefault : NoForced : No
Audio #6ID : 7Format : AC-3Format/Info : Audio Coding 3Mode extension : CM (complete main)Format settings, Endianness : BigCodec ID : A_AC3Duration : 1h 19mnBit rate mode : ConstantBit rate : 448 KbpsChannel(s) : 6 channelsChannel positions : Front: L C R, Side: L R, LFESampling rate : 48.0 KHzBit depth : 16 bitsCompression mode : LossyStream size : 256 MiB (4%)Title : AC3 5.1 448kbps (Оригинал, DVD R5)Language : EnglishDefault : NoForced : No
Text #1ID : 8Format : UTF-8Codec ID : S_TEXT/UTF8Codec ID/Info : UTF-8 Plain TextLanguage : RussianDefault : NoForced : No
Text #2ID : 9Format : UTF-8Codec ID : S_TEXT/UTF8Codec ID/Info : UTF-8 Plain TextLanguage : EnglishDefault : NoForced : No
Menu00:00:00.000 : en:Start00:02:40.142 : en:The Field Trip00:04:15.142 : en:Obstacle Course00:07:31.142 : en:Marvin Meets Rianna00:09:51.142 : en:Badger Milk00:10:32.142 : en:"Make It Better"00:12:38.142 : en:The Accident00:15:19.142 : en:The Running Man00:17:32.142 : en:Playing Frisbee00:18:09.142 : en:Balloon Trick00:20:27.142 : en:The Press Conference00:23:21.142 : en:Dr. Wilder00:24:28.142 : en:"You Were Born Here"00:28:34.142 : en:"Hey Baby"00:35:03.142 : en:The Animal Shelter00:35:41.142 : en:Troule With Control00:39:29.142 : en:Nelly the Goat00:48:03.142 : en:Mayor's Charity Event00:49:05.142 : en:Marvin the Hero00:55:12.142 : en:A Date With Rianna00:58:15.142 : en:End of a Perfect Evening01:02:29.142 : en:Killer Cow Suspect01:12:26.142 : en:Marvin's Hutch01:13:44.142 : en:Sisk's Posse
Скриншот с названием фильма Скриншоты
Скачать

Скачать торрент!

Как скачивать? · Что такое торрент? · Рейтинг и ограничения

Сайт не распространяет и не хранит электронные версии произведений, а лишь предоставляет доступ к создаваемому пользователями каталогу ссылок на торрент-файлы, которые содержат только списки хеш-сумм

[Профиль] [ЛС]
Показать сообщения:    
Ответить на тему

Текущее время: Сегодня 18:09

Часовой пояс: GMT + 4



Вы не можете начинать темы
Вы не можете отвечать на сообщения
Вы не можете редактировать свои сообщения
Вы не можете удалять свои сообщения
Вы не можете голосовать в опросах
Вы не можете прикреплять файлы к сообщениям
Вы не можете скачивать файлы