Оптом дешевле / Cheaper by the Dozen (Шон Леви / Shawn Levy) [2003, США, комедия, семейный, WEB-DL 1080p] Dub + MVO + Ukr + Original Eng + Sub Rus

Ответить на тему
 
Автор Сообщение

user ®

Стаж: 7 лет 7 месяцев

Сообщений: 20008

Пост Пост: #1 от 31-Май-2015 13:18

[Цитировать]

Оптом дешевле / Cheaper by the Dozen- Год выпуска: 2003
Страна: США
Жанр: комедия, семейный
Продолжительность: 01:39:00
Перевод: Профессиональный (полное дублирование)
+ Профессиональный (многоголосый, закадровый)
Оригинальная звуковая дорожка: English
Субтитры: Russian-Режиссер: Шон Леви / Shawn Levy
В ролях: Стив Мартин, Бонни Хант, Пайпер Перабо, Том Уэллинг, Хилари Дафф, Кевин Шмидт, Элисон Стоунер, Джейкоб Смит, Лилиана Муми, Морган Йорк
О фильме: Том и Кейт вместе еще со школы. Они всегда мечтали о большой семье и успешной карьере. Но после рождения первых детей мысли о карьере ушли на второй план и все семейство переехало в тихий и спокойной Иллинойс. Когда детей стало уже двенадцать, Тому предложили работу его мечты - тренировать футбольную команду.
Для этого всей семье опять приходится поменять место жительства. Кейт тоже повезло - ее мемуары наконец-то опубликуют. Она едет на презентацию книги в Нью-Йорк, оставляя бедного Тома следить за целой оравой детей. Сможет ли Том правильно распределить свои усилия, чтобы ни дети, ни работа не пострадали?-Релиз:
Источник: iTunes
Тип релиза: WEB-DL 1080p
Контейнер: MKV
Видео: 1912x1036 at 23.976 fps, MPEG-4 AVC, ~5078 kbps avg
Аудио #01: Russian: 48 kHz, AC3, 3/2 (L,C,R,l,r) + LFE ch, ~384.00 kbps avg |Дубляж|
Аудио #02: Russian: 48 kHz, AC3, 3/2 (L,C,R,l,r) + LFE ch, ~384.00 kbps avg |Многоголосый закадровый|
Аудио #03: Ukrainian: 48 kHz, AC3, 2/0 (L,R) ch, ~192.00 kbps avg |Многоголосый закадровый, Новый канал|
Аудио #04: English: 48 kHz, AC3, 3/2 (L,C,R,l,r) + LFE ch, ~384.00 kbps avg
Семпл-

Скриншоты
-
mInfo
Формат : Matroska
Версия формата : Version 4 / Version 2
Размер файла : 4,53 Гбайт
Продолжительность : 1 ч. 39 м.
Режим общего битрейта : Переменный
Общий поток : 6552 Кбит/сек
Дата кодирования : UTC 2015-05-27 20:07:10
Программа кодирования : mkvmerge v6.2.0 ('Promised Land') built on Apr 28 2013 12:22:01
Библиотека кодирования : libebml v1.3.0 + libmatroska v1.4.0
Видео
Идентификатор : 1
Формат : AVC
Формат/Информация : Advanced Video Codec
Профиль формата : Main@L4.0
Параметр CABAC формата : Да
Параметр ReFrames формата : 2 кадра
Идентификатор кодека : V_MPEG4/ISO/AVC
Продолжительность : 1 ч. 39 м.
Вид битрейта : Переменный
Битрейт : 5078 Кбит/сек
Максимальный битрейт : 768 Кбит/сек
Ширина : 1912 пикселей
Высота : 1036 пикселей
Соотношение сторон : 1,85:1
Режим частоты кадров : Постоянный
Частота кадров : 23,976 кадра/сек
Частота кадров в оригинале : 25,000 кадров/сек
Цветовое пространство : YUV
Субдискретизация насыщенности : 4:2:0
Битовая глубина : 8 бит
Тип развёртки : Прогрессивная
Бит/(Пиксели*Кадры) : 0.107
Размер потока : 3,51 Гбайт (77%)
Язык : English
Default : Да
Forced : Нет
Аудио #1
Идентификатор : 2
Формат : AC-3
Формат/Информация : Audio Coding 3
Расширение режима : CM (complete main)
Параметр Endianness формата : Big
Идентификатор кодека : A_AC3
Продолжительность : 1 ч. 39 м.
Вид битрейта : Постоянный
Битрейт : 384 Кбит/сек
Каналы : 6 каналов
Расположение каналов : Front: L C R, Side: L R, LFE
Частота : 48,0 КГц
Битовая глубина : 16 бит
Метод сжатия : С потерями
Размер потока : 272 Мбайт (6%)
Заголовок : AC3 6 ch 384 kbps Dub
Язык : Russian
Default : Да
Forced : Нет
Аудио #2
Идентификатор : 3
Формат : AC-3
Формат/Информация : Audio Coding 3
Расширение режима : CM (complete main)
Параметр Endianness формата : Big
Идентификатор кодека : A_AC3
Продолжительность : 1 ч. 39 м.
Вид битрейта : Постоянный
Битрейт : 384 Кбит/сек
Каналы : 6 каналов
Расположение каналов : Front: L C R, Side: L R, LFE
Частота : 48,0 КГц
Битовая глубина : 16 бит
Метод сжатия : С потерями
Размер потока : 272 Мбайт (6%)
Заголовок : AC3 6 ch 384 kbps MVO
Язык : Russian
Default : Нет
Forced : Нет
Аудио #3
Идентификатор : 4
Формат : AC-3
Формат/Информация : Audio Coding 3
Расширение режима : CM (complete main)
Параметр Endianness формата : Big
Идентификатор кодека : A_AC3
Продолжительность : 1 ч. 39 м.
Вид битрейта : Постоянный
Битрейт : 192 Кбит/сек
Каналы : 2 канала
Расположение каналов : Front: L R
Частота : 48,0 КГц
Битовая глубина : 16 бит
Метод сжатия : С потерями
Размер потока : 136 Мбайт (3%)
Заголовок : AC3 2 ch 192 kbps MVO Новий канал
Язык : Ukrainian
Default : Нет
Forced : Нет
Аудио #4
Идентификатор : 5
Формат : AC-3
Формат/Информация : Audio Coding 3
Расширение режима : CM (complete main)
Параметр Endianness формата : Big
Идентификатор кодека : A_AC3
Продолжительность : 1 ч. 39 м.
Вид битрейта : Постоянный
Битрейт : 384 Кбит/сек
Каналы : 6 каналов
Расположение каналов : Front: L C R, Side: L R, LFE
Частота : 48,0 КГц
Битовая глубина : 16 бит
Метод сжатия : С потерями
Размер потока : 272 Мбайт (6%)
Заголовок : AC3 6 ch 384 kbps
Язык : English
Default : Нет
Forced : Нет
Текст
Идентификатор : 6
Формат : UTF-8
Идентификатор кодека : S_TEXT/UTF8
Идентификатор кодека/Информация : UTF-8 Plain Text
Язык : Russian
Default : Нет
Forced : Нет
Меню
00:00:00.000 : en:Kapitel 01
00:04:52.000 : en:Kapitel 02
00:08:31.000 : en:Kapitel 03
00:12:34.000 : en:Kapitel 04
00:15:51.000 : en:Kapitel 05
00:19:31.000 : en:Kapitel 06
00:21:03.000 : en:Kapitel 07
00:23:26.000 : en:Kapitel 08
00:26:40.000 : en:Kapitel 09
00:28:50.000 : en:Kapitel 10
00:31:16.000 : en:Kapitel 11
00:33:44.000 : en:Kapitel 12
00:41:26.000 : en:Kapitel 13
00:44:29.000 : en:Kapitel 14
00:46:39.000 : en:Kapitel 15
00:52:19.000 : en:Kapitel 16
00:53:34.000 : en:Kapitel 17
00:58:22.000 : en:Kapitel 18
01:03:51.000 : en:Kapitel 19
01:07:23.000 : en:Kapitel 20
01:11:52.000 : en:Kapitel 21
01:15:11.000 : en:Kapitel 22
01:17:50.000 : en:Kapitel 23
01:19:26.000 : en:Kapitel 24
01:26:47.000 : en:Kapitel 25
01:27:59.000 : en:Kapitel 26
01:30:12.000 : en:Kapitel 27
01:31:48.000 : en:Kapitel 28

-
Цитата:
* За украинскую дорогу большое спасибо Hurtom.
* Работа над релизом - Прагматик.
-
Скачать

Скачать торрент!

Как скачивать? · Что такое торрент? · Рейтинг и ограничения

Сайт не распространяет и не хранит электронные версии произведений, а лишь предоставляет доступ к создаваемому пользователями каталогу ссылок на торрент-файлы, которые содержат только списки хеш-сумм

[Профиль] [ЛС]
Показать сообщения:    
Ответить на тему

Текущее время: Сегодня 22:17

Часовой пояс: GMT + 4



Вы не можете начинать темы
Вы не можете отвечать на сообщения
Вы не можете редактировать свои сообщения
Вы не можете удалять свои сообщения
Вы не можете голосовать в опросах
Вы не можете прикреплять файлы к сообщениям
Вы не можете скачивать файлы