Интерстеллар / Interstellar (Кристофер Нолан / Christopher Nolan) [2014, США, Великобритания, фантастика, боевик, детектив, приключения, BDRip 720p] Dub + MVO + 2x AVO (Сербин, Живов) + VO (Есарев) + Ukr + Sub Rus, Eng + Original Eng

Ответить на тему
 
Автор Сообщение

user ®

Стаж: 7 лет 7 месяцев

Сообщений: 20008

Пост Пост: #1 от 31-Май-2015 13:18

[Цитировать]

Интерстеллар / Interstellar / IMAX Edition Страна: США, Великобритания
Студия: Legendary Pictures, Lynda Obst Productions, Paramount Pictures, Warner Bros.
Жанр: фантастика, боевик, детектив, приключения
Год выпуска: 2014
Продолжительность: 02:49:03
Перевод 1: Профессиональный (дублированный) Blu-ray CEE (fixed)
Перевод 2: Профессиональный (многоголосый закадровый) «Омикрон»
Перевод 3: Авторский (одноголосый закадровый) Сербин
Перевод 4: Авторский (одноголосый закадровый) Живов
Перевод 5: Одноголосый (закадровый) Есарев
Cубтитры: русские (forced, BD, iTunes, unknown), украинские (forced), английские (full, SDH, SDH-COLORED)
Оригинальная аудиодорожка: английский
Режиссер: Кристофер Нолан / Christopher Nolan
В ролях: Мэттью МакКонахи, Энн Хэтэуэй, Кейси Аффлек, Джессика Честейн, Тофер Грейс, Уэс Бентли, Майкл Кейн, Мэтт Дэймон, Маккензи Фой, Джон Литгоу, Эллен Бёрстин
Описание: Когда засуха приводит человечество к продовольственному кризису, коллектив исследователей и учёных отправляется сквозь червоточину (которая предположительно соединяет области пространства-времени через большое расстояние) в путешествие, чтобы превзойти прежние ограничения для космических путешествий человека и переселить человечество на другую планету.

Тип релиза: BDRip 720p [FTO]
Контейнер: MKV
Видео: AVC, 1280x720, 6074Kbps, 23.976 fps
Аудио 1: Russian: 48 kHz, AC3, 3/2 (L,C,R,l,r) + LFE ch, ~640.00 kbps avg |Blu-ray CEE|
Аудио 2: Ukrainian:48 kHz, AC3, 3/2 (L,C,R,l,r) + LFE ch, ~640.00 kbps avg |Blu-ray CEE|
Аудио 3: Russian: 48 kHz, AC3, 3/2 (L,C,R,l,r) + LFE ch, ~640.00 kbps avg |студия «Омикрон»|
Аудио 4: Russian: 48 kHz, AC3, 3/2 (L,C,R,l,r) + LFE ch, ~640.00 kbps avg |Сербин|
Аудио 5: Russian: 48 kHz, AC3, 3/2 (L,C,R,l,r) + LFE ch, ~640.00 kbps avg |Живов|
Аудио 6: Russian: 48 kHz, AC3, 3/2 (L,C,R,l,r) + LFE ch, ~640.00 kbps avg |Есарев|
Аудио 7: English: 48 kHz, AC3, 3/2 (L,C,R,l,r) + LFE ch, ~640.00 kbps |Original|
Чаптеры: есть

x264 log
x264 [info]: frame I:1894 Avg QP:13.51 size:113252
x264 [info]: frame P:51536 Avg QP:15.35 size: 56734
x264 [info]: frame B:189781 Avg QP:17.72 size: 24510
x264 [info]: consecutive B-frames: 2.4% 3.4% 6.2% 21.3% 15.1% 25.5% 8.0% 10.1% 3.0% 1.6% 1.2% 2.1%
encoded 243211 frames, 3.22 fps, 6143.55 kb/s
Доп.информация
За перевод, большое спасибо HDClub
•Задействовано 10 актеров. Майкла Кейна (Professor Brand) озвучивает Владислав Пупков - Легенды Дубляжа.
•Перевод и озвучивание осуществлено в рамках сервиса "Озвучивание". Спонсоры: nod, pppaul, MishGan2008, diezel, McClaud, kinomexanik, CristaS, AmigoDen, xmods, Bellerofont, Fenix_Zz, ultrajeka, shagun, Кириллка, Ser2207, Bluray, rassvet, DaniLch, motpac, melanin, Juve, TiberianZ, rivaspb, PoHHaN, Confidence, darkzim, Dabrynych, iiiMia, BEZYMNIY, maxv, hardkatok, Pertcev, Duff82, king3, lemonarium, tambov68, ADIC, Evgecha_72, Ex1l, GlebBorschev, anton48, FilimoniC, mcevg, SharkHD, niksource, Steal, ZeRoNe, ip_komyagin, UltraHD, John05, Tahoe, Dud, october2, urvakanner, baivlad, goriathid, paha1, Mockatt, G_R_U, Аркан75, four_finger, AlexHD, Ignessio, lex077, irrlicht, sum, Dark_Victor, dkolot.
За перевод Ю. Живова спасибо пользователям
e180 - foxlight, GaryH, maximus10-99, Vladimir, chontvari, SJC, Евгений_1, luka69, Диммон, Daniel Rock, audiolubitel, Splinter, Lee Ray, idalgo, ilbilb;
hdtracker - ultrajeka, Gross1978, Chistobaev, kondratzx, Xerman13, ZeRoNe, _MyxAmoP_, KpucTo161, Cyberclean, shtift, hulahup, Role, Tagansky, edsz, Shumway, Dr. Destructo, Sonny Black, HDKing, AndreyTula, Brown15, vovyanskiy, marlboro-man, ylnian, vadamk, aladdin, KR0Tik, Volshebnik, Anymouse, apollion, WUSA, Loki, kolibri2;
За перевод Ю. Сербина спасибо пользователям
e180 - urassiks, ultrajeka, Vladimir, masta, Drodder, Rayan, idalgo, ZeDOK, Loki1982, Gross1978, Ochkarik1, Эдуард, Ramis, MyxAmoP, vr666, I_Am_Hell, Letyoha3, Palmer Eldritch, carnivale, Iceman, Alexbeer, Sonny Black, Andrey_Tula, Tagansky, ylnian1986, ZombX, DMX-92, Skazhutin, HDKing, HPotter, GKillah, matrox, Roman Lee, Tio, Slimka, maximus10-99, Nick, lazarus2, Anymouse, blackmore, пуля, dvd100, kondratzx, xerman13, Nadoelo, vik19662007, kenzo, luka69, Role, dir, ARTYq, Denis1980, chontvari, Alex70;
- работа с дорожкой Ю. Живова и Ю. Сербина Skazhutin, за что ему огромное спасибо.
Перевод Дмитрия Есарева доступен благодаря: mihey10. Работа со звуком: Volshebnik.
За исправленный дубляж СПАСИБО shurikello
MediaInfo
General
Unique ID : 238322427360721754415022761580084161271 (0xB34B3ADC8416437192C993A4D6CD6AF7)
Complete name : D:\рипы\Interstellar.2014.IMAX.EDITION.720p.BluRay.DD5.1.x264-Talian-.mkv
Format : Matroska
Format version : Version 2
File size : 12.6 GiB
Duration : 2h 49mn
Overall bit rate : 10.6 Mbps
Movie name : Interstellar-Talian-
Encoded date : UTC 2015-05-28 16:36:03
Writing application : mkvmerge v5.7.0 ('The Whirlwind') built on Jul 8 2012 20:08:51
Writing library : libebml v1.2.3 + libmatroska v1.3.0
Video
ID : 1
Format : AVC
Format/Info : Advanced Video Codec
Format profile : High@L4.1
Format settings, CABAC : Yes
Format settings, ReFrames : 9 frames
Codec ID : V_MPEG4/ISO/AVC
Duration : 2h 49mn
Bit rate : 5 936 Kbps
Width : 1 280 pixels
Height : 720 pixels
Display aspect ratio : 16:9
Frame rate : 23.976 fps
Color space : YUV
Chroma subsampling : 4:2:0
Bit depth : 8 bits
Scan type : Progressive
Bits/(Pixel*Frame) : 0.269
Stream size : 7.01 GiB (56%)
Title : FTO
Writing library : x264 core 142 r2491 24e4fed
Encoding settings : cabac=1 / ref=9 / deblock=1:-3:-3 / analyse=0x3:0x133 / me=tesa / subme=11 / psy=1 / psy_rd=1.05:0.00 / mixed_ref=1 / me_range=24 / chroma_me=1 / trellis=2 / 8x8dct=1 / cqm=0 / deadzone=21,11 / fast_pskip=0 / chroma_qp_offset=-2 / threads=12 / lookahead_threads=3 / sliced_threads=0 / nr=0 / decimate=1 / interlaced=0 / bluray_compat=0 / constrained_intra=0 / bframes=11 / b_pyramid=2 / b_adapt=2 / b_bias=0 / direct=3 / weightb=1 / open_gop=0 / weightp=2 / keyint=250 / keyint_min=23 / scenecut=40 / intra_refresh=0 / rc=crf / mbtree=0 / crf=16.4 / qcomp=0.70 / qpmin=0 / qpmax=69 / qpstep=4 / ip_ratio=1.40 / pb_ratio=1.30 / aq=1:0.70
Language : English
Default : Yes
Forced : No
Matrix coefficients : BT.709-5, BT.1361, IEC 61966-2-4 709, SMPTE RP177
Audio #1
ID : 2
Format : AC-3
Format/Info : Audio Coding 3
Mode extension : CM (complete main)
Format settings, Endianness : Big
Codec ID : A_AC3
Duration : 2h 49mn
Bit rate mode : Constant
Bit rate : 640 Kbps
Channel(s) : 6 channels
Channel positions : Front: L C R, Side: L R, LFE
Sampling rate : 48.0 KHz
Bit depth : 16 bits
Compression mode : Lossy
Stream size : 774 MiB (6%)
Title : DUB-Blu-ray CEE
Language : Russian
Default : Yes
Forced : No
Audio #2
ID : 3
Format : AC-3
Format/Info : Audio Coding 3
Mode extension : CM (complete main)
Format settings, Endianness : Big
Codec ID : A_AC3
Duration : 2h 49mn
Bit rate mode : Constant
Bit rate : 640 Kbps
Channel(s) : 6 channels
Channel positions : Front: L C R, Side: L R, LFE
Sampling rate : 48.0 KHz
Bit depth : 16 bits
Compression mode : Lossy
Stream size : 774 MiB (6%)
Title : DUB-Blu-ray CEE
Language : Ukrainian
Default : No
Forced : No
Audio #3
ID : 4
Format : AC-3
Format/Info : Audio Coding 3
Mode extension : CM (complete main)
Format settings, Endianness : Big
Codec ID : A_AC3
Duration : 2h 49mn
Bit rate mode : Constant
Bit rate : 640 Kbps
Channel(s) : 6 channels
Channel positions : Front: L C R, Side: L R, LFE
Sampling rate : 48.0 KHz
Bit depth : 16 bits
Compression mode : Lossy
Stream size : 774 MiB (6%)
Title : MVO-студия «Омикрон»
Language : Russian
Default : No
Forced : No
Audio #4
ID : 5
Format : AC-3
Format/Info : Audio Coding 3
Mode extension : CM (complete main)
Format settings, Endianness : Big
Codec ID : A_AC3
Duration : 2h 49mn
Bit rate mode : Constant
Bit rate : 640 Kbps
Channel(s) : 6 channels
Channel positions : Front: L C R, Side: L R, LFE
Sampling rate : 48.0 KHz
Bit depth : 16 bits
Compression mode : Lossy
Stream size : 774 MiB (6%)
Title : AVO-Сербин
Language : Russian
Default : No
Forced : No
Audio #5
ID : 6
Format : AC-3
Format/Info : Audio Coding 3
Mode extension : CM (complete main)
Format settings, Endianness : Big
Codec ID : A_AC3
Duration : 2h 49mn
Bit rate mode : Constant
Bit rate : 640 Kbps
Channel(s) : 6 channels
Channel positions : Front: L C R, Side: L R, LFE
Sampling rate : 48.0 KHz
Bit depth : 16 bits
Compression mode : Lossy
Stream size : 774 MiB (6%)
Title : AVO-Живов
Language : Russian
Default : No
Forced : No
Audio #6
ID : 7
Format : AC-3
Format/Info : Audio Coding 3
Mode extension : CM (complete main)
Format settings, Endianness : Big
Codec ID : A_AC3
Duration : 2h 49mn
Bit rate mode : Constant
Bit rate : 640 Kbps
Channel(s) : 6 channels
Channel positions : Front: L C R, Side: L R, LFE
Sampling rate : 48.0 KHz
Bit depth : 16 bits
Compression mode : Lossy
Stream size : 774 MiB (6%)
Title : VO-Есарев
Language : Russian
Default : No
Forced : No
Audio #7
ID : 8
Format : AC-3
Format/Info : Audio Coding 3
Mode extension : CM (complete main)
Format settings, Endianness : Big
Codec ID : A_AC3
Duration : 2h 49mn
Bit rate mode : Constant
Bit rate : 640 Kbps
Channel(s) : 6 channels
Channel positions : Front: L C R, Side: L R, LFE
Sampling rate : 48.0 KHz
Bit depth : 16 bits
Compression mode : Lossy
Stream size : 774 MiB (6%)
Title : Original
Language : English
Default : No
Forced : No
Text #1
ID : 9
Format : UTF-8
Codec ID : S_TEXT/UTF8
Codec ID/Info : UTF-8 Plain Text
Title : Sub-forced
Language : Russian
Default : Yes
Forced : No
Text #2
ID : 10
Format : UTF-8
Codec ID : S_TEXT/UTF8
Codec ID/Info : UTF-8 Plain Text
Title : Sub-full-BD
Language : Russian
Default : No
Forced : No
Text #3
ID : 11
Format : UTF-8
Codec ID : S_TEXT/UTF8
Codec ID/Info : UTF-8 Plain Text
Title : Sub-full-iTunes
Language : Russian
Default : No
Forced : No
Text #4
ID : 12
Format : UTF-8
Codec ID : S_TEXT/UTF8
Codec ID/Info : UTF-8 Plain Text
Title : Sub-full-unknown
Language : Russian
Default : No
Forced : No
Text #5
ID : 13
Format : UTF-8
Codec ID : S_TEXT/UTF8
Codec ID/Info : UTF-8 Plain Text
Title : Sub-forced
Language : Ukrainian
Default : No
Forced : No
Text #6
ID : 14
Format : UTF-8
Codec ID : S_TEXT/UTF8
Codec ID/Info : UTF-8 Plain Text
Title : Sub-full
Language : English
Default : No
Forced : No
Text #7
ID : 15
Format : UTF-8
Codec ID : S_TEXT/UTF8
Codec ID/Info : UTF-8 Plain Text
Title : Sub-SDH
Language : English
Default : No
Forced : No
Text #8
ID : 16
Format : UTF-8
Codec ID : S_TEXT/UTF8
Codec ID/Info : UTF-8 Plain Text
Title : Sub-SDH-COLORED
Language : English
Default : No
Forced : No
Menu
00:00:00.000 : en:00:00:00.000
00:09:35.492 : en:00:09:35.492
00:17:12.323 : en:00:17:12.323
00:25:00.749 : en:00:25:00.749
00:35:45.393 : en:00:35:45.393
00:42:16.868 : en:00:42:16.868
00:50:19.892 : en:00:50:19.892
00:54:48.076 : en:00:54:48.076
00:58:59.703 : en:00:58:59.703
01:06:15.013 : en:01:06:15.013
01:17:28.185 : en:01:17:28.185
01:25:32.002 : en:01:25:32.002
01:34:32.000 : en:01:34:32.000
01:46:14.702 : en:01:46:14.702
01:55:34.553 : en:01:55:34.553
02:02:14.369 : en:02:02:14.369
02:12:56.844 : en:02:12:56.844
02:20:53.820 : en:02:20:53.820
02:35:12.094 : en:02:35:12.094
02:43:59.830 : en:02:43:59.830
Скриншоты
Source vs Encode


Скачать

Скачать торрент!

Как скачивать? · Что такое торрент? · Рейтинг и ограничения

Сайт не распространяет и не хранит электронные версии произведений, а лишь предоставляет доступ к создаваемому пользователями каталогу ссылок на торрент-файлы, которые содержат только списки хеш-сумм

[Профиль] [ЛС]
Показать сообщения:    
Ответить на тему

Текущее время: Сегодня 06:05

Часовой пояс: GMT + 4



Вы не можете начинать темы
Вы не можете отвечать на сообщения
Вы не можете редактировать свои сообщения
Вы не можете удалять свои сообщения
Вы не можете голосовать в опросах
Вы не можете прикреплять файлы к сообщениям
Вы не можете скачивать файлы