Духless 2 (Роман Прыгунов) [2015, Драма, DVDScr]

Ответить на тему
 
Автор Сообщение

user ®

Стаж: 7 лет 7 месяцев

Сообщений: 20008

Пост Пост: #1 от 29-Май-2015 21:06

[Цитировать]

Духless 2
Жанр: Драма
Год выпуска: 2015
Продолжительность: 01:40:14
Режиссёр: Роман Прыгунов
В ролях: Данила Козловский, Мария Андреева, Милош Бикович, Павел Ворожцов, Александра Бортич, Кристина Бабушкина, Сергей Бурунов, Лев Прыгунов, Владимир Симонов, Доминик Пинон
Описание: Он отказался от всего, что так когда-то ценил — светской жизни, успешной карьеры, роскошного пентхауса. Теперь его стихия — океан. Каждый день он рассекает на серфе теплые волны, омывающие остров Бали. Но невозможно забыть ритм большого города. Случайное знакомство возвращает его в самое сердце современной столицы — высокие технологии, сумасшедшие сделки, смертельный риск и прежняя любовь, которая больше не с ним.
Доп. информация: Рабочая версия фильма, слитая в сеть за неделю до официального выхода в прокат. Отличается в первую очередь озвучкой - в данной версии сербский актёр Милош Бикович сам говорит за своего героя, в то время как в прокатной версии его переозвучил Григорий Калинин. Так же присутствуют сцены с иной озвучкой, либо вообще с отсутствием её. В видеоряде имеют быть водяные знаки, спецэффекты не везде прорисованы или дорисованы. В окончательный вариант были ещё внесены изменения - какие кажры убрали, некоторые заменили. Для более менее точного представления выкладываю сравнения скриншотов с [url=http://***/forum/viewtopic.php?t=4991843]BDRip раздачи[/url] пользвателя dalemake: http://screenshotcomparison.com/comparison/129130
Сэмпл: http://multi-up.com/1050916
Качество видео: DVDScreener
Формат видео: AVI
Видео: XviD, 1562 kbps, 720x272, 25.0 fps
Аудио: AC3, 2 ch, 384 Kb/s, 48 kHz
MediaInfo
General
Complete name : C:\Users\Семён\Downloads\Духless 2 (2015) DVDScr.avi
Format : AVI
Format/Info : Audio Video Interleave
File size : 1.37 GiB
Duration : 1h 40mn
Overall bit rate : 1 956 Kbps
Writing application : VirtualDubMod 1.5.10.2 (build 2540/release)
Writing library : VirtualDubMod build 2540/release
Video
ID : 0
Format : MPEG-4 Visual
Format profile : Advanced Simple@L5
Format settings, BVOP : 2
Format settings, QPel : No
Format settings, GMC : No warppoints
Format settings, Matrix : Default (H.263)
Codec ID : XVID
Codec ID/Hint : XviD
Duration : 1h 40mn
Bit rate : 1 562 Kbps
Width : 720 pixels
Height : 272 pixels
Display aspect ratio : 2.647
Frame rate : 25.000 fps
Color space : YUV
Chroma subsampling : 4:2:0
Bit depth : 8 bits
Scan type : Progressive
Compression mode : Lossy
Bits/(Pixel*Frame) : 0.319
Stream size : 1.09 GiB (80%)
Writing library : XviD 65
Audio
ID : 1
Format : AC-3
Format/Info : Audio Coding 3
Mode extension : CM (complete main)
Format settings, Endianness : Big
Codec ID : 2000
Duration : 1h 40mn
Bit rate mode : Constant
Bit rate : 384 Kbps
Channel(s) : 2 channels
Channel positions : Front: L R
Sampling rate : 48.0 KHz
Bit depth : 16 bits
Compression mode : Lossy
Stream size : 275 MiB (20%)
Alignment : Split accross interleaves
Interleave, duration : 40 ms (1.00 video frame)
Interleave, preload duratio : 500 ms
Скриншот c названием фильма Скриншоты
Скачать

Скачать торрент!

Как скачивать? · Что такое торрент? · Рейтинг и ограничения

Сайт не распространяет и не хранит электронные версии произведений, а лишь предоставляет доступ к создаваемому пользователями каталогу ссылок на торрент-файлы, которые содержат только списки хеш-сумм

[Профиль] [ЛС]
Показать сообщения:    
Ответить на тему

Текущее время: Сегодня 13:53

Часовой пояс: GMT + 4



Вы не можете начинать темы
Вы не можете отвечать на сообщения
Вы не можете редактировать свои сообщения
Вы не можете удалять свои сообщения
Вы не можете голосовать в опросах
Вы не можете прикреплять файлы к сообщениям
Вы не можете скачивать файлы