Секретный указ императора / Secret Imperial Edict / Chuan guo mi zhao (Яо Шоукан / Yao Shoukang) [1989, Китай, исторический, драма, боевые искусства, TVRip] Dub (к/с им М.Горького)

Ответить на тему
 
Автор Сообщение

user ®

Стаж: 13 лет

Сообщений: 15071

Пост Пост: #1 от 28-Май-2015 23:21

[Цитировать]

Секретный указ императора / Secret Imperial Edict / Chuan guo mi zhao
Страна: Китай
Жанр: исторический, драма, боевые искусства
Год выпуска: 1989
Продолжительность: 01:33:54
Перевод: Профессиональный (дублированный) СССР, к/с им М.Горького
Роли дублировали: Валерий Геннадий Карпов, Алексей Иващенко, Марина Устименко, Валерий Рыжаков, Борис Быстров и др.
Cубтитры: нет
Оригинальная аудиодорожка: нет
Режиссер: Яо Шоукан / Yao Shoukang
В ролях: Синь Фэн, Хэ Вэй, Сунь Гэньфа, Гу Елу, Ван Чженюй
Описание: Действие фильма происходит в 1644 году, когда Великая династия Минь находится на грани уничтожения. Император Чонг-Дзэн поспешно выпускает императорский указ, приказывая наследному принцу Жу Килангу скрыться в Наньцзине в надежде, что он однажды поднимется на трон с помощью выживших министров и сторонников. Империя пылает с обеих сторон: с одной маньчжурские правители пытается войной захватить территории, с другой - восставшие мятежники Юга намереваются объявить императором собственную марионетку - "императора" Хонг-Гуанга. Обе стороны безжалостно конкурируют, пытаясь любыми способами захватить принца и имперский указ, который он перевозит. Евнух Уонг Ченг-Ен поручает своему племяннику Уонгу Жимингу, талантливому бойцу и человеку чести, лояльному правящей династии, сопроводить наследного принца... (Max-Anatol)
Доп. информация: За русскую дорогу спасибо max-anatol. Работа со звуком alex7691.
Сэмпл: http://multi-up.com/1050776
Качество видео: TVRip
Формат видео: AVI
Видео: XviD, 704x400 (16:9), 25.000 fps, 1887 kbps avg
Аудио: Russian AC3 Dolby Digital, 48 kHz, 2/0 (L,R) ch, 192.00 kbps avg
MediaInfo
General
Complete name : E:\Secretnuy_ukaz_imperatora.1989\Secretnuy ukaz mperatora.1989.TVRIp.avi
Format : AVI
Format/Info : Audio Video Interleave
File size : 1.37 GiB
Duration : 1h 33mn
Overall bit rate : 2 088 Kbps
Writing application : VirtualDubModRus 1.5.10.2 (build 2542/release)
Writing library : VirtualDubMod build 2542/release
Video
ID : 0
Format : MPEG-4 Visual
Format profile : Advanced Simple@L5
Format settings, BVOP : 2
Format settings, QPel : No
Format settings, GMC : No warppoints
Format settings, Matrix : Default (MPEG)
Codec ID : XVID
Codec ID/Hint : XviD
Duration : 1h 33mn
Bit rate : 1 887 Kbps
Width : 704 pixels
Height : 400 pixels
Display aspect ratio : 16:9
Frame rate : 25.000 fps
Color space : YUV
Chroma subsampling : 4:2:0
Bit depth : 8 bits
Scan type : Progressive
Compression mode : Lossy
Bits/(Pixel*Frame) : 0.268
Stream size : 1.24 GiB (90%)
Writing library : XviD 73
Audio
ID : 1
Format : AC-3
Format/Info : Audio Coding 3
Mode extension : CM (complete main)
Format settings, Endianness : Big
Codec ID : 2000
Duration : 1h 33mn
Bit rate mode : Constant
Bit rate : 192 Kbps
Channel(s) : 2 channels
Channel positions : Front: L R
Sampling rate : 48.0 KHz
Bit depth : 16 bits
Compression mode : Lossy
Stream size : 129 MiB (9%)
Alignment : Split accross interleaves
Interleave, duration : 40 ms (1.00 video frame)
Interleave, preload duration : 500 ms
Скриншоты Сравнение
[url=http://***/forum/viewtopic.php?t=2078895]http://***/forum/viewtopic.php?t=2078895[/url]
http://screenshotcomparison.com/comparison/129035/picture:0
Скачать

Скачать торрент! Секретный указ императора / Secret Imperial Edict / Chuan guo mi zhao (Яо Шоукан / Yao Shoukang) [1989, Китай, исторический, драма, боевые искусства, TVRip] Dub (к/с им М.Горького)

Как скачивать? · Что такое торрент? · Рейтинг и ограничения

Сайт не распространяет и не хранит электронные версии произведений, а лишь предоставляет доступ к создаваемому пользователями каталогу ссылок на торрент-файлы, которые содержат только списки хеш-сумм

[Профиль] [ЛС]
Показать сообщения:    
Ответить на тему

Текущее время: Сегодня 16:47

Часовой пояс: GMT + 4



Вы не можете начинать темы
Вы не можете отвечать на сообщения
Вы не можете редактировать свои сообщения
Вы не можете удалять свои сообщения
Вы не можете голосовать в опросах
Вы не можете прикреплять файлы к сообщениям
Вы не можете скачивать файлы