Жизнь продолжается / Staying alive (Charlotte Blom / Шарлотта Блум) [2015, Норвегия, мелодрама, комедия, HDRip-AVC] VO (Andi)

Ответить на тему
 
Автор Сообщение

user ®

Стаж: 7 лет 7 месяцев

Сообщений: 20008

Пост Пост: #1 от 28-Май-2015 23:21

[Цитировать]

Жизнь продолжается / Staying alive
Страна: Норвегия
Жанр: мелодрама, комедия
Год выпуска: 2015
Продолжительность: 01:22:58
Перевод: Одноголосый закадровый (Andi)
Cубтитры: нет
Режиссер: Charlotte Blom / Шарлотта Блум
В ролях: Агнес Киттельсен, Лин Скобер, Андерс Босмо Кристиансен
Описание: Марианна наслаждается идеальной жизнью. У нее любящий муж, замечательные дети, регулярные романтические ужины при свечах и все такое... Эта сказка заканчивается, когда выяснется, что муж завел любовницу и собирается бежать из семьи. Хорошо, что у Марианны есть лучшая подруга Кристин, которая всегда готова оказать моральную поддержку.
Доп. информация: Аутентичный норвежский юмор, который местами и временами сложно понять, и прогрессивный взгляд на институт брака.
Фильм предоставлен ВК группой СКАНДИНАВСКИЙ КАЛЕЙДОСКОП
Перевод: М. Васильев
Озвучил: Andi
Сэмпл
IMDB
Качество видео: HDRip-AVC (рип предоставлен [url=http://***/forum/profile.php?mode=viewprofile&u=16773990]этим пользователем[/url])
Формат видео: MKV
Видео: 2001 Kbps, 1152x648 (16:9), 24 000 fps, AVC
Аудио: 192 Kbps, 48.0 KHz, 16 bits, 2 ch, AC 3
MediaInfo
General
Unique ID : 208438373746659783597381098610110383589 (0x9CCFC5432536F641A1BF5FF0BA9A45E5)
Complete name : C:\Users\master\Desktop\норвегия\ЖизньПродолжается.mkv
Format : Matroska
Format version : Version 4 / Version 2
File size : 1.26 GiB
Duration : 1h 22mn
Overall bit rate : 2 168 Kbps
Encoded date : UTC 2015-05-26 18:54:37
Writing application : mkvmerge v7.0.0 ('Where We Going') 32bit built on Jun 9 2014 15:08:34
Writing library : Lavf55.12.0
_STATISTICS_WRITING_APP : mkvmerge v7.0.0 ('Where We Going') 32bit built on Jun 9 2014 15:08:34
_STATISTICS_WRITING_DATE_UTC : 2015-05-26 18:54:37
_STATISTICS_TAGS : BPS DURATION NUMBER_OF_FRAMES NUMBER_OF_BYTES
DURATION : 01:22:58.944000000
NUMBER_OF_FRAMES : 155592
NUMBER_OF_BYTES : 119494656
Video
ID : 1
Format : AVC
Format/Info : Advanced Video Codec
Format profile : High@L4.1
Format settings, CABAC : Yes
Format settings, ReFrames : 9 frames
Codec ID : V_MPEG4/ISO/AVC
Duration : 1h 22mn
Bit rate : 2 001 Kbps
Width : 1 152 pixels
Height : 648 pixels
Display aspect ratio : 16:9
Frame rate mode : Constant
Frame rate : 24.000 fps
Color space : YUV
Chroma subsampling : 4:2:0
Bit depth : 8 bits
Scan type : Progressive
Bits/(Pixel*Frame) : 0.112
Stream size : 1.12 GiB (89%)
Writing library : x264 core 142 r2479 dd79a61
Encoding settings : cabac=1 / ref=9 / deblock=1:-3:-3 / analyse=0x3:0x133 / me=umh / subme=9 / psy=1 / psy_rd=1.00:0.00 / mixed_ref=1 / me_range=24 / chroma_me=1 / trellis=2 / 8x8dct=1 / cqm=0 / deadzone=21,11 / fast_pskip=0 / chroma_qp_offset=-2 / threads=6 / lookahead_threads=1 / sliced_threads=0 / nr=0 / decimate=1 / interlaced=0 / bluray_compat=0 / constrained_intra=0 / bframes=6 / b_pyramid=2 / b_adapt=2 / b_bias=0 / direct=3 / weightb=1 / open_gop=0 / weightp=2 / keyint=240 / keyint_min=24 / scenecut=40 / intra_refresh=0 / rc_lookahead=60 / rc=abr / mbtree=1 / bitrate=2001 / ratetol=1.0 / qcomp=0.60 / qpmin=0 / qpmax=69 / qpstep=4 / vbv_maxrate=62500 / vbv_bufsize=78125 / nal_hrd=none / filler=0 / ip_ratio=1.40 / aq=2:1.00
Default : Yes
Forced : No
Color primaries : BT.709
Transfer characteristics : BT.709
Matrix coefficients : BT.709
_STATISTICS_WRITING_APP : mkvmerge v7.0.0 ('Where We Going') 32bit built on Jun 9 2014 15:08:34
_STATISTICS_WRITING_DATE_UTC : 2015-05-26 18:54:37
_STATISTICS_TAGS : BPS DURATION NUMBER_OF_FRAMES NUMBER_OF_BYTES
DURATION : 01:22:58.834000000
NUMBER_OF_FRAMES : 119492
NUMBER_OF_BYTES : 1228830767
Audio
ID : 2
Format : AC-3
Format/Info : Audio Coding 3
Mode extension : CM (complete main)
Format settings, Endianness : Big
Codec ID : A_AC3
Duration : 1h 22mn
Bit rate mode : Constant
Bit rate : 192 Kbps
Channel(s) : 2 channels
Channel positions : Front: L R
Sampling rate : 48.0 KHz
Bit depth : 16 bits
Compression mode : Lossy
Delay relative to video : -83ms
Stream size : 114 MiB (9%)
Default : No
Forced : No
Menu
00:00:00.000 : :00:00:00.000
00:09:59.708 : :00:09:59.583
00:20:00.083 : :00:19:59.917
00:29:59.833 : :00:29:59.667
00:40:00.166 : :00:40:00.000
00:49:59.958 : :00:49:59.708
01:00:00.041 : :00:59:59.875
01:10:00.125 : :01:09:59.958
01:20:00.041 : :01:19:59.917
Скриншот c названием фильма Скриншоты
Скачать

Скачать торрент!

Как скачивать? · Что такое торрент? · Рейтинг и ограничения

Сайт не распространяет и не хранит электронные версии произведений, а лишь предоставляет доступ к создаваемому пользователями каталогу ссылок на торрент-файлы, которые содержат только списки хеш-сумм

[Профиль] [ЛС]
Показать сообщения:    
Ответить на тему

Текущее время: Сегодня 20:09

Часовой пояс: GMT + 4



Вы не можете начинать темы
Вы не можете отвечать на сообщения
Вы не можете редактировать свои сообщения
Вы не можете удалять свои сообщения
Вы не можете голосовать в опросах
Вы не можете прикреплять файлы к сообщениям
Вы не можете скачивать файлы