Волшебный футбол / Настольный футбол / Metegol (Хуан Хосе Кампанелла / Juan José Campanella) [2013, Мультфильм, комедия, приключения, семейный, полном, HDRip] Dub

Ответить на тему
 
Автор Сообщение

user ®

Стаж: 11 лет

Сообщений: 15145

Пост Пост: #1 от 28-Май-2015 01:42

[Цитировать]

Волшебный футбол / Настольный футбол / Metegol
Страна: Испания, Аргентина
Жанр: Мультфильм, комедия, приключения, семейный, полном
Продолжительность: 01:46:38
Год выпуска: 2013
Перевод: Профессиональный (дублированный)
Русские субтитры: нет
Режиссёр: Хуан Хосе Кампанелла / Juan José Campanella
Роли озвучивали: Фабиан Джианола, Горацио Фонтова, Лусия Масьель, Давид Масахник, Пабло Раго, Диего Рамос, Мигель Анхель Родригез, Коко Сили
Описание: История Амадео, застенчивого мальчика с добрым сердцем, и его друзей — отважных футболистов, с помощью которых Амадео должен вернуть себе честь, достоинство и настоящую любовь. Это фильм о дружбе, верности и страсти, действие которого разворачивается на футбольном поле.
Семпл: http://multi-up.com/1050621
Качество: HDRip
Формат: AVI
Видео: XviD, 720x304 (2.35:1), 23.976 fps, ~ 1562 kbps
Аудио: AC3, 48.0 KHz, 6 ch, 384 Kbps
Субтитры: отсутствуют
Подробные технические данные
GeneralComplete name : D:\Superkomanda.2013.D.HDRip.1.46Gb.aviFormat : AVIFormat/Info : Audio Video InterleaveFile size : 1.46 GiBDuration : 1h 46mnOverall bit rate : 1 955 KbpsWriting application : VirtualDubMod 1.5.10.3 | www.virtualdub-fr.org || (build 2550/release)Writing library : VirtualDubMod build 2550/release
VideoID : 0Format : MPEG-4 VisualFormat profile : Advanced Simple@L5Format settings, BVOP : 2Format settings, QPel : NoFormat settings, GMC : No warppointsFormat settings, Matrix : Default (MPEG)Codec ID : XVIDCodec ID/Hint : XviDDuration : 1h 46mnBit rate : 1 562 KbpsWidth : 720 pixelsHeight : 304 pixelsDisplay aspect ratio : 2.35:1Frame rate : 23.976 fpsColor space : YUVChroma subsampling : 4:2:0Bit depth : 8 bitsScan type : ProgressiveCompression mode : LossyBits/(Pixel*Frame) : 0.298Stream size : 1.16 GiB (80%)Writing library : XviD 1.2.1 (UTC 2008-12-04)
AudioID : 1Format : AC-3Format/Info : Audio Coding 3Mode extension : CM (complete main)Format settings, Endianness : BigCodec ID : 2000Duration : 1h 46mnBit rate mode : ConstantBit rate : 384 KbpsChannel(s) : 6 channelsChannel positions : Front: L C R, Side: L R, LFESampling rate : 48.0 KHzCompression mode : LossyStream size : 293 MiB (20%)Alignment : Split accross interleavesInterleave, duration : 42 ms (1.00 video frame)Interleave, preload duration : 500 ms
Скриншоты
Скачать

Скачать торрент! Волшебный футбол / Настольный футбол / Metegol (Хуан Хосе Кампанелла / Juan José Campanella) [2013, Мультфильм, комедия, приключения, семейный, полном, HDRip] Dub

Как скачивать? · Что такое торрент? · Рейтинг и ограничения

Сайт не распространяет и не хранит электронные версии произведений, а лишь предоставляет доступ к создаваемому пользователями каталогу ссылок на торрент-файлы, которые содержат только списки хеш-сумм

[Профиль] [ЛС]
Показать сообщения:    
Ответить на тему

Текущее время: Сегодня 17:54

Часовой пояс: GMT + 4



Вы не можете начинать темы
Вы не можете отвечать на сообщения
Вы не можете редактировать свои сообщения
Вы не можете удалять свои сообщения
Вы не можете голосовать в опросах
Вы не можете прикреплять файлы к сообщениям
Вы не можете скачивать файлы