Простушка / The DUFF (Эри Сандел / Ari Sandel) [2015, США, Комедия, экранизация, HDRip] Dub

Ответить на тему
 
Автор Сообщение

user ®

Стаж: 7 лет 7 месяцев

Сообщений: 20008

Пост Пост: #1 от 28-Май-2015 01:42

[Цитировать]

Простушка / The DUFF
Страна: США
Жанр: Комедия, экранизация
Год выпуска: 2015
Продолжительность: 01:41:14
Перевод: Профессиональный (дублированный)
Cубтитры: нет
Оригинальная аудиодорожка: нет
Режиссер: Эри Сандел / Ari Sandel
В ролях: Мэй Уитман, Робби Амелл, Белла Торн, Бьянка А. Сантос, Скайлер Сэмюэлс, Романи Малко, Ник Эверсман, Крис Уайлд, Кен Жонг, Эллисон Дженни
Описание: Экранизация любовного романа Коди Кеплингер «The DUFF». Качок, ботан, рокер, стерва — в каждой компании есть персонажи с такими кличками. Бьянка Пайпер не подозревает, как ее зовут за ее спиной. Подружки списывают у нее физику и берут ее с собой на тусовки, чтобы круче смотреться на ее фоне. Школьный плейбой Уэсли Раш открывает ей глаза на правду… Как Бьянке избавиться от позорного статуса, стать неотразимой и завоевать сердце первого красавца?
Рейтинг:
Сэмпл: http://sendfile.su/1121897
Качество видео: HDRip
Формат видео: AVI
Видео: XviD, 720x304 (2.35:1), 23.976 fps, ~ 1540 kbps
Аудио: AC3, 48.0 KHz, 6 ch, 384 Kbps
MediaInfo
eneral
Complete name : D:\Torrent\Prostushka.2015.D.HDRip.1400Mb.avi
Format : AVI
Format/Info : Audio Video Interleave
File size : 1.37 GiB
Duration : 1h 41mn
Overall bit rate : 1 933 Kbps
Writing application : VirtualDubMod 1.5.10.2 (build 2540/release)
Writing library : VirtualDubMod build 2540/release
Video
ID : 0
Format : MPEG-4 Visual
Format profile : Advanced Simple@L5
Format settings, BVOP : 2
Format settings, QPel : No
Format settings, GMC : No warppoints
Format settings, Matrix : Default (MPEG)
Codec ID : XVID
Codec ID/Hint : XviD
Duration : 1h 41mn
Bit rate : 1 540 Kbps
Width : 720 pixels
Height : 304 pixels
Display aspect ratio : 2.35:1
Frame rate : 23.976 fps
Color space : YUV
Chroma subsampling : 4:2:0
Bit depth : 8 bits
Scan type : Progressive
Compression mode : Lossy
Bits/(Pixel*Frame) : 0.293
Stream size : 1.09 GiB (80%)
Writing library : XviD 1.2.1 (UTC 2008-12-04)
Audio
ID : 1
Format : AC-3
Format/Info : Audio Coding 3
Mode extension : CM (complete main)
Format settings, Endianness : Big
Codec ID : 2000
Duration : 1h 41mn
Bit rate mode : Constant
Bit rate : 384 Kbps
Channel(s) : 6 channels
Channel positions : Front: L C R, Side: L R, LFE
Sampling rate : 48.0 KHz
Compression mode : Lossy
Stream size : 278 MiB (20%)
Alignment : Split accross interleaves
Interleave, duration : 42 ms (1.00 video frame)
Interleave, preload duration : 500 ms
Скриншот c названием фильма Скриншоты
Скачать

Скачать торрент!

Как скачивать? · Что такое торрент? · Рейтинг и ограничения

Сайт не распространяет и не хранит электронные версии произведений, а лишь предоставляет доступ к создаваемому пользователями каталогу ссылок на торрент-файлы, которые содержат только списки хеш-сумм

[Профиль] [ЛС]
Показать сообщения:    
Ответить на тему

Текущее время: Сегодня 10:08

Часовой пояс: GMT + 4



Вы не можете начинать темы
Вы не можете отвечать на сообщения
Вы не можете редактировать свои сообщения
Вы не можете удалять свои сообщения
Вы не можете голосовать в опросах
Вы не можете прикреплять файлы к сообщениям
Вы не можете скачивать файлы