Полуцыпленок (Аркадий Хинтибидзе) [1962, рисованный мультфильм, TVRip]

Ответить на тему
 
Автор Сообщение

user ®

Стаж: 7 лет 7 месяцев

Сообщений: 20008

Пост Пост: #1 от 27-Май-2015 22:36

[Цитировать]

Полуцыпленок
Страна: СССР
Производство: Грузия-фильм
Жанр: рисованный мультфильм
Продолжительность: 00:19:58
Год выпуска: 1962
Русские субтитры: нет
Режиссёр: Аркадий Хинтибидзе
Описание: Мультфильм по мотивам одноименной поэмы Важа Пшавела о храбром полуцыплёнке.
Кинопоиск
Качество: TVRip
Формат: AVI
Видео: 640x480 (1.33:1), 25 fps, XviD MPEG-4 ~1501 kbps avg, 0.195 bit/pixel
Аудио: 44.1 kHz, MPEG Layer 3, 1 ch, ~96.00 kbps avg
Субтитры: Отсутствуют

Подробное описание сюжета мультфильма
Когда поутру старый петух выкрикивал зарю и курица выводила цыплят на зарядку, маленький, хилый полуцыпленок бежал сзади всех. Однажды на выводок налетел ястреб и унес полуцыпленка. Куры оплакали его смерть. Но полуцыпленок не погиб. Завязался воздушный бой между ястребом и другим хищником. Полуцыпленок упал на скалу и с большим трудом добрался домой. Его радостно встретили куры и петух, а вскоре произошла первая любовная история полуцыпленка. Но молодой петух избил полуцыпленка. С тех пор полуцыпленок стал тщательно тренироваться, чтобы отомстить обидчику, и мужал не по дням, а по часам. Вскоре их старый враг ястреб напал на молодую курочку, но старый петух с полуцыпленком сумели вырвать ее из лап врага. А через некоторое время в честном бою полуцыпленок отомстил обидчику. Когда старый петух погиб в бою с ястребом, возмужавший полуцыпленок сменил его на посту главы рода и каждое утро своим криком возвещал зарю.
Подробные технические данные
GeneralComplete name : E:\1\мультики\Полуцыплёнок 1962.aviFormat : AVIFormat/Info : Audio Video InterleaveFile size : 230 MiBDuration : 19mn 58sOverall bit rate : 1 607 KbpsWriting application : VirtualDubMod 1.5.10.3 | www.virtualdub-fr.org || (build 2550/release)Writing library : VirtualDubMod build 2550/release
VideoID : 0Format : MPEG-4 VisualFormat profile : Advanced Simple@L5Format settings, BVOP : 2Format settings, QPel : NoFormat settings, GMC : No warppointsFormat settings, Matrix : Default (H.263)Codec ID : XVIDCodec ID/Hint : XviDDuration : 19mn 58sBit rate : 1 501 KbpsWidth : 640 pixelsHeight : 480 pixelsDisplay aspect ratio : 4:3Frame rate : 25.000 fpsColor space : YUVChroma subsampling : 4:2:0Bit depth : 8 bitsScan type : ProgressiveCompression mode : LossyBits/(Pixel*Frame) : 0.195Stream size : 214 MiB (93%)Writing library : XviD 1.2.1 (UTC 2008-12-04)
AudioID : 1Format : MPEG AudioFormat version : Version 1Format profile : Layer 3Codec ID : 55Codec ID/Hint : MP3Duration : 19mn 58sBit rate mode : ConstantBit rate : 96.0 KbpsChannel count : 1 channelSampling rate : 44.1 KHzCompression mode : LossyStream size : 13.7 MiB (6%)Alignment : Split accross interleavesInterleave, duration : 40 ms (1.00 video frame)Interleave, preload duration : 500 msWriting library : LAME3.99rEncoding settings : -m m -V 4 -q 2 -lowpass 20.5 -b 96
Скриншоты
Скачать

Скачать торрент!

Как скачивать? · Что такое торрент? · Рейтинг и ограничения

Сайт не распространяет и не хранит электронные версии произведений, а лишь предоставляет доступ к создаваемому пользователями каталогу ссылок на торрент-файлы, которые содержат только списки хеш-сумм

[Профиль] [ЛС]
Показать сообщения:    
Ответить на тему

Текущее время: Сегодня 00:12

Часовой пояс: GMT + 4



Вы не можете начинать темы
Вы не можете отвечать на сообщения
Вы не можете редактировать свои сообщения
Вы не можете удалять свои сообщения
Вы не можете голосовать в опросах
Вы не можете прикреплять файлы к сообщениям
Вы не можете скачивать файлы