Там, где бродит бизон / Where The Buffalo Roam (Арт Линсон / Art Linson) [1980, США, комедия, приключения, биография, BDRip 720p] MVO + VO (Поздняков) + Original Eng + Sub Rus, Eng

Ответить на тему
 
Автор Сообщение

user ®

Стаж: 7 лет 7 месяцев

Сообщений: 20008

Пост Пост: #1 от 26-Май-2015 15:03

[Цитировать]

«Based on the twisted legend of Hunter S. Thompson»Там, где бродит бизонWhere the Buffalo Roam- Страна: США
Жанр: комедия, биография
Год выпуска: 1980
Продолжительность: 01:39:14-Перевод 1: Профессиональный (многоголосый, закадровый)
Перевод 2: Одноголосый закадровый (К. Поздняков)
Оригинальная дорожка: Английская
Субтитры: русские, русские (К. Поздняков), английские
Режиссер: Арт Линсон / Art Linson
В ролях:
Питер Бойл (Lazlo), Билл Мюррей (Hunter S. Thompson), Бруно Кёрби (Marty Lewis), Рене Обержонуа (Harris), Р.Г. Армстронг (Judge Simpson), Дэнни Голдман (Porter), Рафаэль Кампос (Rojas), Леонард Фрэй (Desk Clerk), Леонард Гейнс (Super Fan), Девейн Джесси (Man #1), Марк Меткалф (Dooley), Джон Шир (Billy Kramer)-Описание: История о приключениях «безбашенного» журналиста Хантера Томпсона и его поверенного Оскара Акоста, которого все зовут Ласлоу. Томпсон пытается описывать турнир «Супер Боул» и президентские выборы 1972-го года в своем обычном состоянии под воздействием наркотиков и алкоголя, но ему постоянно мешает его еще более странный друг Ласлоу.-
MPAA: R - Лицам до 17 лет обязательно присутствие взрослого
-Источник: [url=http://***/forum/viewtopic.php?t=5005332]BD-Remux HDCLUB[/url]
Качество: BDRip 720p | Сэмпл
Контейнер: MKV
Видео: AVC x264, 1280x694 (1.844), 23.976 fps, 11.1 Mbps, 0.521 bit/pixel
Аудио №1: AC3, 48.0 KHz, 192 Kbps, 2 channels (mvo)
Аудио №2: AC3, 48.0 KHz, 192 Kbps, 2 channels (vo, К. Поздняков)
Аудио №3: DTS, 48.0 KHz, 1 509 Kbps, 2 channels (Оригинал)
Формат субтитров: softsub (SRT)
Навигация по главам: есть
-Скрины Сравнение с источником x264 / MediaInfo
x264 [info]: frame I:813   Avg QP:17.79  size:125917
x264 [info]: frame P:23560 Avg QP:19.24  size: 87449
x264 [info]: frame B:118403 Avg QP:21.23  size: 53126
General
Unique ID : 201921364354353490831430133342283274836 (0x97E8A3E449E13542812C6D683DB49A54)
Complete name : E:\where.the.buffalo.roam.1980.bdrip.720p.mkv
Format : Matroska
Format version : Version 4 / Version 2
File size : 9.19 GiB
Duration : 1h 39mn
Overall bit rate : 13.3 Mbps
Movie name : Там, где бродит бизон / Where the Buffalo Roam (1980) egiko'z rip // i'm
Encoded by : egiko
Encoded date : UTC 2015-05-26 09:01:37
Writing application : mkvmerge v7.9.0 ('Birds') 64bit
Writing library : libebml v1.3.1 + libmatroska v1.4.2
Attachements : cover.jpg
DIRECTOR : Art Linson
DATE_RELEASED : 1980
SUMMARY : «Based on the twisted legend of Hunter S. Thompson»
DURATION : 01:35:34.777000000
NUMBER_OF_FRAMES : 1258
NUMBER_OF_BYTES : 83824
_STATISTICS_WRITING_APP : mkvmerge v7.9.0 ('Birds') 64bit
_STATISTICS_WRITING_DATE_UTC : 2015-05-26 09:01:37
_STATISTICS_TAGS : BPS DURATION NUMBER_OF_FRAMES NUMBER_OF_BYTES
Video
ID : 1
Format : AVC
Format/Info : Advanced Video Codec
Format profile : High@L4.1
Format settings, CABAC : Yes
Format settings, ReFrames : 9 frames
Codec ID : V_MPEG4/ISO/AVC
Duration : 1h 39mn
Bit rate : 11.1 Mbps
Width : 1 280 pixels
Height : 694 pixels
Display aspect ratio : 1.85:1
Frame rate mode : Constant
Frame rate : 23.976 fps
Color space : YUV
Chroma subsampling : 4:2:0
Bit depth : 8 bits
Scan type : Progressive
Bits/(Pixel*Frame) : 0.521
Stream size : 7.69 GiB (84%)
Title : Where the Buffalo Roam (1980)
Writing library : x264 core 146 r2538kMod 121396c
Encoding settings : cabac=1 / ref=9 / deblock=1:-3:-3 / analyse=0x3:0x113 / me=umh / subme=10 / psy=1 / fade_compensate=0.00 / psy_rd=0.85:0.00 / mixed_ref=1 / me_range=32 / chroma_me=1 / trellis=2 / 8x8dct=1 / cqm=0 / deadzone=21,11 / fast_pskip=0 / chroma_qp_offset=-2 / threads=6 / lookahead_threads=1 / sliced_threads=0 / nr=0 / decimate=1 / interlaced=0 / bluray_compat=0 / constrained_intra=0 / fgo=0 / bframes=16 / b_pyramid=2 / b_adapt=2 / b_bias=0 / direct=1 / weightb=1 / open_gop=0 / weightp=2 / keyint=240 / keyint_min=23 / scenecut=40 / intra_refresh=0 / rc_lookahead=60 / rc=crf / mbtree=0 / crf=16.6000 / qcomp=0.60 / qpmin=0 / qpmax=69 / qpstep=4 / vbv_maxrate=62500 / vbv_bufsize=78125 / crf_max=0.0 / nal_hrd=none / filler=0 / ip_ratio=1.40 / pb_ratio=1.30 / aq=2:0.60 / zones=138566,142775,q=40
Language : English
Default : Yes
Forced : No
DURATION : 01:39:14.949000000
NUMBER_OF_FRAMES : 142776
NUMBER_OF_BYTES : 8452929704
_STATISTICS_WRITING_APP : mkvmerge v7.9.0 ('Birds') 64bit
_STATISTICS_WRITING_DATE_UTC : 2015-05-26 09:01:37
_STATISTICS_TAGS : BPS DURATION NUMBER_OF_FRAMES NUMBER_OF_BYTES
Audio #1
ID : 2
Format : AC-3
Format/Info : Audio Coding 3
Mode extension : CM (complete main)
Format settings, Endianness : Big
Codec ID : A_AC3
Duration : 1h 39mn
Bit rate mode : Constant
Bit rate : 192 Kbps
Channel(s) : 2 channels
Channel positions : Front: L R
Sampling rate : 48.0 KHz
Bit depth : 16 bits
Compression mode : Lossy
Stream size : 136 MiB (1%)
Title : mvo
Language : Russian
Default : Yes
Forced : No
Audio #2
ID : 3
Format : AC-3
Format/Info : Audio Coding 3
Mode extension : CM (complete main)
Format settings, Endianness : Big
Codec ID : A_AC3
Duration : 1h 39mn
Bit rate mode : Constant
Bit rate : 192 Kbps
Channel(s) : 2 channels
Channel positions : Front: L R
Sampling rate : 48.0 KHz
Bit depth : 16 bits
Compression mode : Lossy
Stream size : 136 MiB (1%)
Title : vo, К. Поздняков
Language : Russian
Default : No
Forced : No
Audio #3
ID : 4
Format : DTS
Format/Info : Digital Theater Systems
Mode : 16
Format settings, Endianness : Big
Codec ID : A_DTS
Duration : 1h 39mn
Bit rate mode : Constant
Bit rate : 1 509 Kbps
Channel(s) : 2 channels
Channel positions : Front: L R
Sampling rate : 48.0 KHz
Bit depth : 24 bits
Compression mode : Lossy
Stream size : 1.05 GiB (11%)
Title : Оригинал
Language : English
Default : No
Forced : No
Text #1
ID : 5
Format : UTF-8
Codec ID : S_TEXT/UTF8
Codec ID/Info : UTF-8 Plain Text
Language : Russian
Default : No
Forced : No
Text #2
ID : 6
Format : UTF-8
Codec ID : S_TEXT/UTF8
Codec ID/Info : UTF-8 Plain Text
Title : К. Поздняков
Language : Russian
Default : No
Forced : No
Text #3
ID : 7
Format : UTF-8
Codec ID : S_TEXT/UTF8
Codec ID/Info : UTF-8 Plain Text
Language : English
Default : No
Forced : No
Menu
00:00:00.000 : en:00:00:00.000
00:12:19.363 : en:00:12:19.363
00:17:39.391 : en:00:17:39.391
00:32:15.391 : en:00:32:15.391
00:38:33.059 : en:00:38:33.059
00:50:51.715 : en:00:50:51.715
00:55:38.668 : en:00:55:38.668
01:06:47.585 : en:01:06:47.585
01:16:03.057 : en:01:16:03.057
01:25:34.378 : en:01:25:34.378
01:33:17.382 : en:01:33:17.382
01:36:15.351 : en:01:36:15.351
Скачать

Скачать торрент!

Как скачивать? · Что такое торрент? · Рейтинг и ограничения

Сайт не распространяет и не хранит электронные версии произведений, а лишь предоставляет доступ к создаваемому пользователями каталогу ссылок на торрент-файлы, которые содержат только списки хеш-сумм

[Профиль] [ЛС]
Показать сообщения:    
Ответить на тему

Текущее время: Сегодня 08:13

Часовой пояс: GMT + 4



Вы не можете начинать темы
Вы не можете отвечать на сообщения
Вы не можете редактировать свои сообщения
Вы не можете удалять свои сообщения
Вы не можете голосовать в опросах
Вы не можете прикреплять файлы к сообщениям
Вы не можете скачивать файлы