Бушидо / Bushido / Shundou ( Ясуо Миками / Yasuo Mikami) [2013, Япония, Драма, дзидайгеки, BDRip] Sub Rus

Ответить на тему
 
Автор Сообщение

user ®

Стаж: 13 лет

Сообщений: 15071

Пост Пост: #1 от 25-Май-2015 23:30

[Цитировать]

Бушидо / Bushido (Shundou)
Страна: Япония
Жанр: Драма, дзидайгеки
Год выпуска: 2013
Продолжительность: 01:41:47
Перевод: Субтитры meykasahara
Cубтитры: русские
Оригинальная аудиодорожка: Японский
Режиссер: Yasuo Mikami/Ясуо Миками
В ролях: Хира Такехиро, Вакизаки Томохито, Сато Тамао, Вакабаяши Го, Мегуро Юки, Такео Накахара, Тосиаки Кусуноки
Описание: Честь человека, честь самурая, честь слуги сёгуната. Сопоставимы ли эти понятия?
Средневековая Япония, сёгунат Токугава. Дайме, возглавлявшие 250 хан (земельные владения кланов), на которые делилась Япония, подразделялись на две большие группы, фудай и тозама, в зависимости от того, примкнули ли они к Токугава до или после битвы при Сэкигахара. В 1735 году, через 3 года после великого голода в Кёхо, хан Инаба, восстановилось подобие стабильности. Временный заместитель государя клана, Араки Минаеши, подозревает Мацумия Джузо, посланного сёгунатом мастера фехтования, в том, что он шпион...
Доп. информация: Субтитры мои. Фильм на русский язык не переводился. Полнометражная версия фильма Shundou 1982 г., снятого на 16-мм пленку Ясуо Миками.
Кинопоиск http://www.kinopoisk.ru/film/739348/
Imdb http://www.imdb.com/title/tt2698678/
Источник - BD Remux с BD с AsianDVDClub
Сэмпл: http://sendfile.su/1121486
Качество видео: BDRip
Формат видео: AVI
Видео: DX50, 640х360, 29.970 fps, 1860 Kbps
Аудио: MP3, 48 KHz, 192 Kbps, 2 ch
Формат субтитров: softsub (SRT)
MediaInfo
General
Format : AVI
Format/Info : Audio Video Interleave
File size : 1.47 GiB
Duration : 1h 41mn
Overall bit rate : 2 063 Kbps
Writing application : VirtualDubMod 1.5.10.3 | www.virtualdub-fr.org || (build 2550/release)
Writing library : VirtualDubMod build 2550/release
Video
ID : 0
Format : MPEG-4 Visual
Format profile : Advanced Simple@L5
Format settings, BVOP : 1
Format settings, QPel : No
Format settings, GMC : No warppoints
Format settings, Matrix : Default (MPEG)
Codec ID : DX50
Codec ID/Hint : DivX 5
Duration : 1h 41mn
Bit rate : 1 860 Kbps
Width : 640 pixels
Height : 360 pixels
Display aspect ratio : 16:9
Frame rate : 29.970 fps
Color space : YUV
Chroma subsampling : 4:2:0
Bit depth : 8 bits
Scan type : Progressive
Compression mode : Lossy
Bits/(Pixel*Frame) : 0.269
Stream size : 1.32 GiB (90%)
Writing library : XviD 1.2.1 (UTC 2008-12-04)
Audio
ID : 1
Format : MPEG Audio
Format version : Version 1
Format profile : Layer 3
Codec ID : 55
Codec ID/Hint : MP3
Duration : 1h 41mn
Bit rate mode : Constant
Bit rate : 192 Kbps
Channel(s) : 2 channels
Sampling rate : 48.0 KHz
Compression mode : Lossy
Stream size : 140 MiB (9%)
Alignment : Aligned on interleaves
Interleave, duration : 33 ms (1.00 video frame)
Interleave, preload duration : 504 ms
Writing library : LAME3.99r
Encoding settings : -m s -V 4 -q 0 -lowpass 18.6 -b 192
Скриншот c названием фильма Скриншоты Пример субтитров
305
00:26:42,710 --> 00:26:43,677
Точно, Кимура?
306
00:26:44,178 --> 00:26:48,171
Да, это хороший меч. Как раз для тебя.
307
00:26:48,349 --> 00:26:50,909
Я буду продолжать исследования.
Этого вполне достаточно.
308
00:26:51,085 --> 00:26:54,350
Предпочитаю, чтобы ты использовал его.
309
00:26:55,990 --> 00:26:57,753
Я, правда, ценю это.
310
00:26:59,260 --> 00:27:01,421
Кроме того, у меня есть...
311
00:27:01,696 --> 00:27:04,859
Вижу... Хорошо для защиты.
312
00:27:05,600 --> 00:27:07,261
Моя защита тут.
313
00:27:07,902 --> 00:27:11,736
Жду не дождусь, чтобы научиться Мусаши Энмей-рю
в клане Хоки.
314
00:27:17,879 --> 00:27:19,210
Кагава!
315
00:27:21,182 --> 00:27:23,446
Извиниться перед Косакой за поединок не хочешь?
Скачать

Скачать торрент! Бушидо / Bushido / Shundou ( Ясуо Миками / Yasuo Mikami) [2013, Япония, Драма, дзидайгеки, BDRip] Sub Rus

Как скачивать? · Что такое торрент? · Рейтинг и ограничения

Сайт не распространяет и не хранит электронные версии произведений, а лишь предоставляет доступ к создаваемому пользователями каталогу ссылок на торрент-файлы, которые содержат только списки хеш-сумм

[Профиль] [ЛС]
Показать сообщения:    
Ответить на тему

Текущее время: Сегодня 22:15

Часовой пояс: GMT + 4



Вы не можете начинать темы
Вы не можете отвечать на сообщения
Вы не можете редактировать свои сообщения
Вы не можете удалять свои сообщения
Вы не можете голосовать в опросах
Вы не можете прикреплять файлы к сообщениям
Вы не можете скачивать файлы