Любовь на особом уровне | Close Range Love (Кумадзава Наото / Kumazawa Naoto) [2014, Япония, романтика, школа, лайв-экшн, HDRip] DVO (STEPonee)

Ответить на тему
 
Автор Сообщение

user ®

Стаж: 13 лет

Сообщений: 15071

Пост Пост: #1 от 25-Май-2015 23:30

[Цитировать]

Любовь на особом уровне | Close Range Love | Kinkyori Renai
Страна: Япония
Жанр: романтика, школа, лайв-экшн
Год выпуска: 2014
Продолжительность: 01:58:01
Перевод: двухголосый закадровый (студия STEPonee)

Субтитры: Отсутствуют.
Режиссёр: Кумадзава Наото (Kumazawa Naoto)
В ролях:
Ямашита Томохиса (Yamashita Tomohisa) – Учитель Сакураи Харука
Комацу Нана (Nana Komatsu) - Куруруги Юми
Араи Хирофуми] (Hirofumi Arai)- Учитель Акечи
Ямамото Мидзуки (Mizuki Yamamoto)- Нанами
Мидзукава Асами] (Asami Mizukawa) - Школьная подруга учителя Сакураи
Котаки Нодзому (Nozomu Kotaki)
Описание
Оригинальная манга описывает историю любви между красавчиком "цундэрэ" учителем Харука Сакураи и самой умной ученицей Юни Куруруги. Харука заигрывает с каждой девушкой, которую видит (включая Юни), балансируя между своим холодным поведением, резкими выражениями и действиями, заставляющие женские сердца биться чаще.
Доп. информация:
IMDB
Кинопоиск
Сэмпл
Роли озвучивали:
  • Илья хайко
  • Натиа Макаридзе
    Перевод на русский язык: ФСГ Азалии
    Качество видео: HDRip (исходник неизвестен)
    Формат видео: mkv
    Видео: x264, 848x352 (2.40:1), 23,976 к/с, 1325 кбит/с
    Аудио: AC3 2.0, 48 кГц, 448 кбит/с
    Подготовка релиза:
  • Натиа Макаридзе - работа со звуком
  • Илья хайко - монтаж
  • Виктория Гражинская - тайминг
  • Екатерина Проц - постер
    Mediainfo
General
Unique ID : 191440016075878409753059482250939737854 (0x9006018608C69181AC6AC7F4F67826FE)
Complete name : close range love.mkv
Format : Matroska
Format version : Version 1
File size : 1.47 GiB
Duration : 2h 0mn
Overall bit rate : 1 753 Kbps
Encoded date : UTC 2015-05-25 12:09:19
Writing application : mkvmerge v2.3.0 ('Freak U') built on Sep 8 2008 18:32:16
Writing library : libebml v0.7.7 + libmatroska v0.8.1
Video
ID : 1
Format : AVC
Format/Info : Advanced Video Codec
Format profile : High@L5.1
Format settings, CABAC : Yes
Format settings, ReFrames : 11 frames
Codec ID : V_MPEG4/ISO/AVC
Duration : 2h 0mn
Bit rate : 1 325 Kbps
Width : 848 pixels
Height : 352 pixels
Display aspect ratio : 2.40:1
Frame rate mode : Constant
Frame rate : 23.976 fps
Color space : YUV
Chroma subsampling : 4:2:0
Bit depth : 8 bits
Scan type : Progressive
Bits/(Pixel*Frame) : 0.185
Stream size : 1.07 GiB (72%)
Title : Encoded by zdzdz
Writing library : x264 core 146 r2538 121396c
Encoding settings : cabac=1 / ref=11 / deblock=1:-1:-1 / analyse=0x3:0x133 / me=umh / subme=11 / psy=1 / psy_rd=1.00:0.00 / mixed_ref=1 / me_range=32 / chroma_me=1 / trellis=2 / 8x8dct=1 / cqm=0 / deadzone=21,11 / fast_pskip=1 / chroma_qp_offset=-2 / threads=3 / lookahead_threads=1 / sliced_threads=0 / nr=0 / decimate=1 / interlaced=0 / bluray_compat=0 / constrained_intra=0 / bframes=10 / b_pyramid=2 / b_adapt=2 / b_bias=5 / direct=3 / weightb=1 / open_gop=0 / weightp=2 / keyint=240 / keyint_min=23 / scenecut=40 / intra_refresh=0 / rc_lookahead=40 / rc=2pass / mbtree=1 / bitrate=1325 / ratetol=1.0 / qcomp=0.60 / qpmin=0 / qpmax=69 / qpstep=4 / cplxblur=20.0 / qblur=0.5 / vbv_maxrate=240000 / vbv_bufsize=240000 / nal_hrd=none / filler=0 / ip_ratio=1.40 / aq=2:0.80
Language : Japanese
Default : Yes
Forced : No
DURATION : 01:58:01.074000000
NUMBER_OF_FRAMES : 169776
NUMBER_OF_BYTES : 1172490591
_STATISTICS_WRITING_APP : mkvmerge v7.8.0 ('River Man') 64bit built on Mar 27 2015 16:31:37
_STATISTICS_WRITING_DATE_UTC : 2015-04-14 19:15:13
_STATISTICS_TAGS : BPS DURATION NUMBER_OF_FRAMES NUMBER_OF_BYTES
Audio
ID : 2
Format : AC-3
Format/Info : Audio Coding 3
Mode extension : CM (complete main)
Format settings, Endianness : Big
Codec ID : A_AC3
Duration : 2h 0mn
Bit rate mode : Constant
Bit rate : 448 Kbps
Channel count : 2 channels
Channel positions : Front: L R
Sampling rate : 48.0 KHz
Bit depth : 16 bits
Compression mode : Lossy
Stream size : 385 MiB (26%)
Default : Yes
Forced : No
Menu
00:00:00.000 : :Chapter 01
00:00:32.000 : :Chapter 02
00:10:27.834 : :Chapter 03
00:17:52.435 : :Chapter 04
00:26:13.802 : :Chapter 05
00:37:29.102 : :Chapter 06
00:44:56.669 : :Chapter 07
00:53:00.537 : :Chapter 08
00:59:42.804 : :Chapter 09
01:12:13.638 : :Chapter 10
01:24:30.307 : :Chapter 11
01:42:56.474 : :Chapter 12
01:52:52.008 : :Chapter 13
01:57:41.041 : :Chapter 14
Скриншот с названием фильма Скриншоты Все раздачи студии
[url=http://***/forum/tracker.php?nm=steponee]Все разделы[/url]
[url=http://***/forum/tracker.php?f=915&nm=steponee]Корейские сериалы[/url]
[url=http://***/forum/tracker.php?f=1939&nm=steponee]Японские сериалы[/url]
[url=http://***/forum/tracker.php?f=2412&nm=steponee]Прочие азиатские сериалы[/url]
[url=http://***/forum/tracker.php?f=934&nm=steponee]Азиатские фильмы[/url]
Скачать

Скачать торрент! Любовь на особом уровне | Close Range Love (Кумадзава Наото / Kumazawa Naoto) [2014, Япония, романтика, школа, лайв-экшн, HDRip] DVO (STEPonee)

Как скачивать? · Что такое торрент? · Рейтинг и ограничения

Сайт не распространяет и не хранит электронные версии произведений, а лишь предоставляет доступ к создаваемому пользователями каталогу ссылок на торрент-файлы, которые содержат только списки хеш-сумм

[Профиль] [ЛС]
Показать сообщения:    
Ответить на тему

Текущее время: Сегодня 16:29

Часовой пояс: GMT + 4



Вы не можете начинать темы
Вы не можете отвечать на сообщения
Вы не можете редактировать свои сообщения
Вы не можете удалять свои сообщения
Вы не можете голосовать в опросах
Вы не можете прикреплять файлы к сообщениям
Вы не можете скачивать файлы