Гнездо Дракона / Dragon Nest: Warriors\' Dawn (Юэфэн Сонг / Yuefeng Song) [2014, фэнтези, приключения, семейный, BDRip-AVC] Dub

Ответить на тему
 
Автор Сообщение

user ®

Стаж: 13 лет

Сообщений: 15041

Пост Пост: #1 от 25-Май-2015 14:12

[Цитировать]


Гнездо Дракона | Dragon Nest: Warriors' Dawn
- Страна: Китай, США
Жанр: фэнтези, приключения, семейный
Продолжительность: 01:30:02
Год выпуска: 2014
Перевод: Профессиональный (дублированный)
Русские субтитры: нет
Режиссёр: Юэфэн Сонг / Yuefeng Song
Роли озвучивали: Блайт Оффарт, Бьянка Коллинз, Саймон Джэглом-ОписаниеКто бы мог подумать, что всегда неуклюжий, но несомненно талантливый парень станет великим героем, который спасет свою красивейшую планету от пробудившегося зла? Много лет, пока легендарный Черный дракон спал, земля Алтера хранила хрупкий мир между расами людей, эльфов и неведомых нашему миру животных. Когда же он пробудился, охваченные ужасом жители были вынуждены бежать сквозь остров в попытке найти спасение… Наш герой Ламберт в компании своих пушистых компаньонов отправляется в путь полный веселых развлечений и приключений, встречая настоящих друзей и любовь в лице прекрасной эльфийской девочки. Объединившись, они находят тайную дорогу к пещере дракона, а юный воин выполняет возложенную на него важнейшую миссию: он входит в доверие к Черному Дракону, чтобы с честью и юмором выйти победителем.-Сэмпл

IMDb: 7.00 (315)
Качество: BDRip-AVC BD RUS -Azureus-
Формат: MKV
Видео: AVC 3750 Kbps 1136 x 614 (1.850) 24.000 fps
Аудио: AC-3 448 6 channels, 48.0 KHz Rus DUB
Субтитры: Нет
MI | Log
Log
x264 [info]: frame I:950 Avg QP:14.79 size: 96990
x264 [info]: frame P:40682 Avg QP:16.28 size: 34279
x264 [info]: frame B:88006 Avg QP:19.09 size: 12516
x264 [info]: consecutive B-frames: 8.3% 8.8% 18.1% 26.8% 13.5% 21.5% 1.4% 0.3% 0.3% 0.2% 0.1% 0.2% 0.4%
x264 [info]: mb I I16..4: 4.4% 74.2% 21.4%
x264 [info]: mb P I16..4: 2.3% 26.8% 4.6% P16..4: 22.0% 23.1% 9.4% 2.0% 0.3% skip: 9.5%
x264 [info]: mb B I16..4: 0.6% 5.0% 0.7% B16..8: 28.6% 19.5% 3.5% direct: 5.7% skip:36.4% L0:37.0% L1:45.7% BI:17.3%
x264 [info]: 8x8 transform intra:79.1% inter:57.5%
x264 [info]: direct mvs spatial:99.7% temporal:0.3%
x264 [info]: coded y,uvDC,uvAC intra: 80.3% 79.0% 60.2% inter: 22.9% 20.6% 5.4%
x264 [info]: i16 v,h,dc,p: 18% 22% 4% 56%
x264 [info]: i8 v,h,dc,ddl,ddr,vr,hd,vl,hu: 11% 11% 10% 9% 11% 11% 12% 12% 15%
x264 [info]: i4 v,h,dc,ddl,ddr,vr,hd,vl,hu: 16% 13% 10% 7% 13% 11% 12% 8% 11%
x264 [info]: i8c dc,h,v,p: 36% 32% 17% 14%
x264 [info]: Weighted P-Frames: Y:4.6% UV:3.4%
x264 [info]: ref P L0: 57.5% 11.5% 13.9% 4.7% 3.4% 2.4% 2.0% 1.2% 1.1% 1.0% 1.0% 0.3% 0.0%
x264 [info]: ref B L0: 84.5% 7.8% 3.0% 1.5% 1.0% 0.7% 0.6% 0.4% 0.3% 0.2%
x264 [info]: ref B L1: 95.0% 5.0%
x264 [info]: kb/s:3833.16
x264 [total]: encoded 129638 frames, 7.80 fps, 3833.16 kb/s, duration 4:36:52.83
Format : Matroska
Format version : Version 4 / Version 2
File size : 2.69 GiB
Duration : 1h 30mn
Overall bit rate : 4 283 Kbps
Encoded date : UTC 2015-05-25 07:23:24
Writing application : mkvmerge v6.7.0 ('Back to the Ground') 32bit built on Jan 8 2014 15:03:17
Writing library : libebml v1.3.0 + libmatroska v1.4.1
Video
ID : 1
Format : AVC
Format/Info : Advanced Video Codec
Format profile : High@L4.1
Format settings, CABAC : Yes
Format settings, ReFrames : 11 frames
Codec ID : V_MPEG4/ISO/AVC
Duration : 1h 30mn
Bit rate : 3 750 Kbps
Width : 1 136 pixels
Height : 614 pixels
Display aspect ratio : 1.85:1
Frame rate mode : Constant
Frame rate : 24.000 fps
Color space : YUV
Chroma subsampling : 4:2:0
Bit depth : 8 bits
Scan type : Progressive
Bits/(Pixel*Frame) : 0.224
Stream size : 2.36 GiB (88%)
Title : Dragon Nest: Warriors' Dawn
Writing library : x264 core 146 r2538kMod 121396c
Encoding settings : cabac=1 / ref=11 / deblock=1:-2:-1 / analyse=0x3:0x133 / me=umh / subme=11 / psy=1 / fade_compensate=0.00 / psy_rd=1.00:0.05 / mixed_ref=1 / me_range=32 / chroma_me=1 / trellis=2 / 8x8dct=1 / cqm=0 / deadzone=21,11 / fast_pskip=0 / chroma_qp_offset=-3 / threads=12 / lookahead_threads=3 / sliced_threads=0 / nr=0 / decimate=1 / interlaced=0 / bluray_compat=0 / constrained_intra=0 / fgo=0 / bframes=12 / b_pyramid=2 / b_adapt=2 / b_bias=0 / direct=3 / weightb=1 / open_gop=0 / weightp=2 / keyint=250 / keyint_min=23 / scenecut=40 / intra_refresh=0 / rc_lookahead=80 / rc=crf / mbtree=0 / crf=17.5000 / qcomp=0.60 / qpmin=0 / qpmax=69 / qpstep=4 / vbv_maxrate=50000 / vbv_bufsize=62500 / crf_max=0.0 / nal_hrd=none / filler=0 / ip_ratio=1.40 / pb_ratio=1.30 / aq=3:0.90
Language : Chinese
Default : Yes
Forced : No
Audio
ID : 2
Format : AC-3
Format/Info : Audio Coding 3
Mode extension : CM (complete main)
Format settings, Endianness : Big
Codec ID : A_AC3
Duration : 1h 30mn
Bit rate mode : Constant
Bit rate : 448 Kbps
Channel(s) : 6 channels
Channel positions : Front: L C R, Side: L R, LFE
Sampling rate : 48.0 KHz
Bit depth : 16 bits
Compression mode : Lossy
Stream size : 288 MiB (10%)
Title : DUB
Language : Russian
Default : Yes
Forced : No
Menu
00:00:00.000 : en:
00:00:04.000 : en:
00:09:47.875 : en:
00:22:21.458 : en:
00:34:00.791 : en:
00:45:00.666 : en:
00:53:09.125 : en:
01:03:32.208 : en:
01:15:11.541 : en:
Скриншоты
Скачать

Скачать торрент! Гнездо Дракона / Dragon Nest: Warriors\' Dawn (Юэфэн Сонг / Yuefeng Song) [2014, фэнтези, приключения, семейный, BDRip-AVC] Dub

Как скачивать? · Что такое торрент? · Рейтинг и ограничения

Сайт не распространяет и не хранит электронные версии произведений, а лишь предоставляет доступ к создаваемому пользователями каталогу ссылок на торрент-файлы, которые содержат только списки хеш-сумм

[Профиль] [ЛС]
Показать сообщения:    
Ответить на тему

Текущее время: Сегодня 03:43

Часовой пояс: GMT + 4



Вы не можете начинать темы
Вы не можете отвечать на сообщения
Вы не можете редактировать свои сообщения
Вы не можете удалять свои сообщения
Вы не можете голосовать в опросах
Вы не можете прикреплять файлы к сообщениям
Вы не можете скачивать файлы