Мертвая тишина / Dead Silence (Джеймс Ван / James Wan) [2007, США, ужасы, триллер, детектив, BDRip 720p] MVO + Ukr + Original Eng + Sub (Rus, Ukr, Eng)

Ответить на тему
 
Автор Сообщение

user ®

Стаж: 7 лет 7 месяцев

Сообщений: 20008

Пост Пост: #1 от 23-Май-2015 22:00

[Цитировать]

Мертвая тишина / Dead Silence- Год выпуска: 2007
Страна: США
Жанр: ужасы, триллер, детектив
Продолжительность: 01:31:30
Перевод: Профессиональный (многоголосый, закадровый) EUR
Оригинальная звуковая дорожка: English
Субтитры: Russian (Captions), Russian, Ukrainian (Forced), English (SDH, SDH Colored)-Режиссер: Джеймс Ван / James Wan
В ролях: Райан Квантен, Эмбер Валлетта, Донни Уолберг, Майкл Фэйрмэн, Джоан Хини, Боб Гантон, Лаура Риган, Дмитрий Чеповецкий, Джудит Анна Робертс, Кейр Гилкрист
О фильме: Молодая пара, Джемми и Лиза, решили начать новую жизнь в маленьком городке вдали от суеты огромных мегаполисов. Только поселившись в этой заброшенной, запустелой точке на карте, они уже устали слушать сказки о наводняющих дома призраках и всей породы нечисти, обитающей повсюду. Когда Лиза была бесчеловечно убита, Джемми, будучи главным подозреваемым в преступлении, решает провести независимое расследование относительно её загадочной смерти.
Погружаясь в то, что он ещё недавно считал сказками, парень узнает легенду о некой Мэри, дух которой, по словам местных жителей, всё ещё бродит по пустынным улицам города. Всецело отдавшись исследованию прошлого этого места, он вскоре натыкается на самые кровеобильные подробности и навлекает на себя проклятие, которое и стало причиной смерти его супруги.-SbR!
Тип релиза: BDRip 720p
Контейнер: MKV
Видео: 1280x534 at 23.976 fps, x264@L4.1, crf, ~7522 kbps avg
Аудио #01: Russian: 48 kHz, DTS, 3/2 (L,C,R,l,r) + LFE ch, ~768 kbps avg |Многоголосый закадровый, Blu-ray EUR|
Аудио #02: Ukrainian: 48 kHz, AC3, 3/2 (L,C,R,l,r) + LFE ch, ~384 kbps avg |Многоголосый закадровый, ТакТребаПродакшн|
Аудио #03: English: 48 kHz, DTS, 3/2 (L,C,R,l,r) + LFE ch, ~1509 kbps avg
Семпл-Source vs Encode
-
mInfo
Формат : Matroska
Версия формата : Version 4 / Version 2
Размер файла : 6,51 Гбайт
Продолжительность : 1 ч. 31 м.
Общий поток : 10,2 Мбит/сек
Название фильма : Dead Silence (2007) - Release for HDCLUB by SbR
Дата кодирования : UTC 2015-05-23 14:57:09
Программа кодирования : mkvmerge v7.0.0 ('Where We Going') 32bit built on Jun 9 2014 15:08:34
Библиотека кодирования : libebml v1.3.0 + libmatroska v1.4.1
Attachements : cover.jpg / xlog.txt
DURATION : 01:23:30.213000000
NUMBER_OF_FRAMES : 680
NUMBER_OF_BYTES : 24674
_STATISTICS_WRITING_APP : mkvmerge v7.0.0 ('Where We Going') 32bit built on Jun 9 2014 15:08:34
_STATISTICS_WRITING_DATE_UTC : 2015-05-23 14:57:09
_STATISTICS_TAGS : BPS DURATION NUMBER_OF_FRAMES NUMBER_OF_BYTES
Видео
Идентификатор : 1
Формат : AVC
Формат/Информация : Advanced Video Codec
Профиль формата : High@L4.1
Параметр CABAC формата : Да
Параметр ReFrames формата : 12 кадров
Идентификатор кодека : V_MPEG4/ISO/AVC
Продолжительность : 1 ч. 31 м.
Битрейт : 7324 Кбит/сек
Ширина : 1280 пикселей
Высота : 534 пикселя
Соотношение сторон : 2,40:1
Режим частоты кадров : Постоянный
Частота кадров : 23,976 кадра/сек
Цветовое пространство : YUV
Субдискретизация насыщенности : 4:2:0
Битовая глубина : 8 бит
Тип развёртки : Прогрессивная
Бит/(Пиксели*Кадры) : 0.447
Размер потока : 4,68 Гбайт (72%)
Заголовок : Release for HDCLUB
Библиотека кодирования : x264 core 146 r2538kMod 121396c
Настройки программы : cabac=1 / ref=12 / deblock=1:-2:-2 / analyse=0x3:0x133 / me=umh / subme=11 / psy=1 / fade_compensate=0.00 / psy_rd=1.00:0.00 / mixed_ref=1 / me_range=32 / chroma_me=1 / trellis=2 / 8x8dct=1 / cqm=0 / deadzone=21,11 / fast_pskip=1 / chroma_qp_offset=-2 / threads=12 / lookahead_threads=2 / sliced_threads=0 / nr=0 / decimate=1 / interlaced=0 / bluray_compat=0 / constrained_intra=0 / fgo=0 / bframes=8 / b_pyramid=2 / b_adapt=2 / b_bias=0 / direct=1 / weightb=1 / open_gop=0 / weightp=2 / keyint=250 / keyint_min=23 / scenecut=40 / intra_refresh=0 / rc_lookahead=60 / rc=crf / mbtree=0 / crf=16.5000 / qcomp=0.70 / qpmin=0 / qpmax=69 / qpstep=4 / vbv_maxrate=62500 / vbv_bufsize=78125 / crf_max=0.0 / nal_hrd=none / filler=0 / ip_ratio=1.40 / pb_ratio=1.30 / aq=1:0.80
Язык : English
Default : Да
Forced : Нет
Основные цвета : BT.709
Характеристики трансфера : BT.709
Коэффициенты матрицы : BT.709
colour_range : Limited
Аудио #1
Идентификатор : 2
Формат : DTS
Формат/Информация : Digital Theater Systems
Режим : 16
Параметр Endianness формата : Big
Идентификатор кодека : A_DTS
Продолжительность : 1 ч. 31 м.
Вид битрейта : Постоянный
Битрейт : 768 Кбит/сек
Каналы : 6 каналов
Расположение каналов : Front: L C R, Side: L R, LFE
Частота : 48,0 КГц
Битовая глубина : 24 бит
Метод сжатия : С потерями
Размер потока : 503 Мбайт (8%)
Заголовок : MVO, Blu-ray EUR
Язык : Russian
Default : Да
Forced : Нет
Аудио #2
Идентификатор : 3
Формат : AC-3
Формат/Информация : Audio Coding 3
Расширение режима : CM (complete main)
Параметр Endianness формата : Big
Идентификатор кодека : A_AC3
Продолжительность : 1 ч. 31 м.
Вид битрейта : Постоянный
Битрейт : 384 Кбит/сек
Каналы : 6 каналов
Расположение каналов : Front: L C R, Side: L R, LFE
Частота : 48,0 КГц
Битовая глубина : 16 бит
Метод сжатия : С потерями
Размер потока : 251 Мбайт (4%)
Заголовок : ТакТреба Продакшн
Язык : Ukrainian
Default : Нет
Forced : Нет
Аудио #3
Идентификатор : 4
Формат : DTS
Формат/Информация : Digital Theater Systems
Режим : 16
Параметр Endianness формата : Big
Идентификатор кодека : A_DTS
Продолжительность : 1 ч. 31 м.
Вид битрейта : Постоянный
Битрейт : 1509 Кбит/сек
Каналы : 6 каналов
Расположение каналов : Front: L C R, Side: L R, LFE
Частота : 48,0 КГц
Битовая глубина : 24 бит
Метод сжатия : С потерями
Размер потока : 988 Мбайт (15%)
Язык : English
Default : Нет
Forced : Нет
Текст #1
Идентификатор : 5
Формат : UTF-8
Идентификатор кодека : S_TEXT/UTF8
Идентификатор кодека/Информация : UTF-8 Plain Text
Заголовок : Captions
Язык : Russian
Default : Да
Forced : Нет
Текст #2
Идентификатор : 6
Формат : UTF-8
Идентификатор кодека : S_TEXT/UTF8
Идентификатор кодека/Информация : UTF-8 Plain Text
Язык : Russian
Default : Нет
Forced : Нет
Текст #3
Идентификатор : 7
Формат : UTF-8
Идентификатор кодека : S_TEXT/UTF8
Идентификатор кодека/Информация : UTF-8 Plain Text
Заголовок : Forced
Язык : Ukrainian
Default : Нет
Forced : Нет
Текст #4
Идентификатор : 8
Формат : UTF-8
Идентификатор кодека : S_TEXT/UTF8
Идентификатор кодека/Информация : UTF-8 Plain Text
Заголовок : SDH
Язык : English
Default : Нет
Forced : Нет
Текст #5
Идентификатор : 9
Формат : UTF-8
Идентификатор кодека : S_TEXT/UTF8
Идентификатор кодека/Информация : UTF-8 Plain Text
Заголовок : SDH Colored
Язык : English
Default : Нет
Forced : Нет
Меню
00:00:00.000 : en:End Titles
00:03:34.005 : en:Who's The Dummy
00:06:21.547 : en:One Left
00:12:26.203 : en:You Weren't the Last
00:16:15.015 : en:Long - Lost Relative
00:18:53.382 : en:A Clue From Henry
00:22:43.570 : en:Sins of the Father
00:28:45.932 : en:Don't Scream
00:30:56.646 : en:To Make the Perfect Doll
00:38:09.495 : en:No Alibi
00:44:57.820 : en:A Surprise for Jamie
00:48:35.037 : en:Mysterious Mail
00:54:05.200 : en:A Perfect Design
00:58:21.748 : en:Beware of the Stare
01:03:26.385 : en:Funeral Arrangements
01:08:44.703 : en:Raven's Fair
01:12:04.028 : en:Nothing Else to Tell
01:20:09.846 : en:Plagued By Death
01:24:58.093 : en:Billy
01:27:18.233 : en:Bury the Doll

-
Цитата:
* За английские субтитры большое спасибо Elheym.
Скачать

Скачать торрент!

Как скачивать? · Что такое торрент? · Рейтинг и ограничения

Сайт не распространяет и не хранит электронные версии произведений, а лишь предоставляет доступ к создаваемому пользователями каталогу ссылок на торрент-файлы, которые содержат только списки хеш-сумм

[Профиль] [ЛС]
Показать сообщения:    
Ответить на тему

Текущее время: Сегодня 16:10

Часовой пояс: GMT + 4



Вы не можете начинать темы
Вы не можете отвечать на сообщения
Вы не можете редактировать свои сообщения
Вы не можете удалять свои сообщения
Вы не можете голосовать в опросах
Вы не можете прикреплять файлы к сообщениям
Вы не можете скачивать файлы