Человеческая многоножка 3 / The Human Centipede III (Final Sequence) (Том Сикс / Tom Six) [2015, США, ужасы, HDRip] DVO (2D) + Original Eng

Ответить на тему
 
Автор Сообщение

user ®

Стаж: 7 лет 7 месяцев

Сообщений: 20008

Пост Пост: #1 от 23-Май-2015 22:00

[Цитировать]

Человеческая многоножка 3 / The Human Centipede III (Final Sequence)
Страна: США
Жанр: ужасы
Год выпуска: 2015
Продолжительность: 01:42:40
Перевод: Любительский (двухголосый закадровый) 2D
Cубтитры: нет
Оригинальная аудиодорожка: английский
Режиссер: Том Сикс / Tom Six
В ролях: Эрик Робертс, Бри Олсон, Том ’Тайни’ Листер мл., Роберт ЛаСардо, Том Сикс, Клэйтон Ронер
Описание: Надзиратель беспокойной тюрьмы, у которого не получается заслужить уважение заключенных и губернатора штата, решается на внедрение революционного наказания, способного не только навести порядок в тюремной системе, но и сэкономить миллионы долларов, — в буквальном смысле поставить заключенных на колени, сшив их в гигантскую многоножку из 500 человек.

Доп. информация:
Перевод: chup
Сэмпл: http://multi-up.com/1048771
Качество видео: HDRip
Формат видео: AVI
Видео: Xvid 720x304 24.00fps 1594Kbps
Аудио 1: Dolby AC3 48000Hz stereo 192Kbps [русский]
Аудио 2: Dolby AC3 48000Hz stereo 192Kbps [английский]
MediaInfo
General
Complete name : D:\TORRENTS\Человеческая многоножка 3.avi
Format : AVI
Format/Info : Audio Video Interleave
File size : 1.43 GiB
Duration : 1h 43mn
Overall bit rate : 1 983 Kbps
Video
ID : 0
Format : MPEG-4 Visual
Format profile : Simple@L5
Format settings, BVOP : No
Format settings, QPel : No
Format settings, GMC : No warppoints
Format settings, Matrix : Default (H.263)
Codec ID : XVID
Codec ID/Hint : XviD
Duration : 1h 42mn
Bit rate : 1 594 Kbps
Width : 720 pixels
Height : 304 pixels
Display aspect ratio : 2.35:1
Frame rate : 24.000 fps
Color space : YUV
Chroma subsampling : 4:2:0
Bit depth : 8 bits
Scan type : Progressive
Compression mode : Lossy
Bits/(Pixel*Frame) : 0.303
Stream size : 1.14 GiB (80%)
Writing library : Lavc56.13.100
Audio #1
ID : 1
Format : AC-3
Format/Info : Audio Coding 3
Mode extension : CM (complete main)
Format settings, Endianness : Big
Codec ID : 2000
Duration : 1h 43mn
Source duration : 1h 42mn
Bit rate mode : Constant
Bit rate : 192 Kbps
Channel(s) : 2 channels
Channel positions : Front: L R
Sampling rate : 48.0 KHz
Bit depth : 16 bits
Compression mode : Lossy
Stream size : 141 MiB (10%)
Alignment : Aligned on interleaves
Interleave, duration : 42 ms (1.00 video frame)
Audio #2
ID : 2
Format : AC-3
Format/Info : Audio Coding 3
Mode extension : CM (complete main)
Format settings, Endianness : Big
Codec ID : 2000
Duration : 1h 42mn
Source duration : 1h 42mn
Bit rate mode : Constant
Bit rate : 192 Kbps
Channel(s) : 2 channels
Channel positions : Front: L R
Sampling rate : 48.0 KHz
Bit depth : 16 bits
Compression mode : Lossy
Stream size : 141 MiB (10%)
Alignment : Aligned on interleaves
Interleave, duration : 42 ms (1.00 video frame)
Скриншот c названием фильма Скриншоты
Скачать

Скачать торрент!

Как скачивать? · Что такое торрент? · Рейтинг и ограничения

Сайт не распространяет и не хранит электронные версии произведений, а лишь предоставляет доступ к создаваемому пользователями каталогу ссылок на торрент-файлы, которые содержат только списки хеш-сумм

[Профиль] [ЛС]
Показать сообщения:    
Ответить на тему

Текущее время: Сегодня 11:57

Часовой пояс: GMT + 4



Вы не можете начинать темы
Вы не можете отвечать на сообщения
Вы не можете редактировать свои сообщения
Вы не можете удалять свои сообщения
Вы не можете голосовать в опросах
Вы не можете прикреплять файлы к сообщениям
Вы не можете скачивать файлы