Приличные люди (Клим Поплавский) [2015, комедия, WEBRip]

Ответить на тему
 
Автор Сообщение

user ®

Стаж: 7 лет 7 месяцев

Сообщений: 20008

Пост Пост: #1 от 23-Май-2015 12:42

[Цитировать]

Приличные люди
Жанр: комедия
Год выпуска: 2015
Продолжительность: 01:28:53
Режиссёр: Клим Поплавский
В ролях: Наталия Медведева, Сергей Шнуров, Евгений Сморигин, Григорий Цветков, Артём Башенин, Алексей Гришин, Игорь Хрипунов, Андрей Федорцов, Константин Мурзенко, Анна Уколова
Описание: Что делать, если в вашем доме поселился родственник, недавно освободившийся из тюрьмы? И сделал жизнь вашей семьи невыносимой. А вы с женой случайно его убили. И соседский мальчик видел, как вы пытались закопать труп на заднем дворе. А инспектор ДПС обратил внимание на вашего неразговорчивого родственника в машине. Не очень представляя себе жизнь за решеткой, вы, наверное, должны избавиться от трупа… и, видимо, от маленького свидетеля … и полицейскому вы тоже как-то не должны позволить рассказать, что у вас в машине не совсем живой человек и чужой ребенок…
Сэмпл: http://multi-up.com/1049911
Качество видео: WEBRip
Формат видео: AVI
Видео: 720x272 (2.647), 25 fps, XviD 1.2.1 ~1808 kbps avg, 0.369 bit/pixel
Аудио: 48.0 kHz, AC3 Dolby Digital, 2 ch, ~384 kbps

MediaInfo
General
Complete name : F:\Download\Pr1l1chn1e.LUd1.avi
Format : AVI
Format/Info : Audio Video Interleave
File size : 1.37 GiB
Duration : 1h 28mn
Overall bit rate : 2 202 Kbps
Writing application : VirtualDubMod 1.5.10.2 (build 2540/release)
Writing library : VirtualDubMod build 2540/release
Video
ID : 0
Format : MPEG-4 Visual
Format profile : Advanced Simple@L5
Format settings, BVOP : 2
Format settings, QPel : No
Format settings, GMC : No warppoints
Format settings, Matrix : Default (MPEG)
Codec ID : XVID
Codec ID/Hint : XviD
Duration : 1h 28mn
Bit rate : 1 808 Kbps
Width : 720 pixels
Height : 272 pixels
Display aspect ratio : 2.647
Frame rate : 25.000 fps
Color space : YUV
Chroma subsampling : 4:2:0
Bit depth : 8 bits
Scan type : Progressive
Compression mode : Lossy
Bits/(Pixel*Frame) : 0.369
Stream size : 1.12 GiB (82%)
Writing library : XviD 1.2.1 (UTC 2008-12-04)
Audio
ID : 1
Format : AC-3
Format/Info : Audio Coding 3
Mode extension : CM (complete main)
Format settings, Endianness : Big
Codec ID : 2000
Duration : 1h 28mn
Bit rate mode : Constant
Bit rate : 384 Kbps
Channel(s) : 2 channels
Channel positions : Front: L R
Sampling rate : 48.0 KHz
Compression mode : Lossy
Stream size : 244 MiB (17%)
Alignment : Split accross interleaves
Interleave, duration : 40 ms (1.00 video frame)
Interleave, preload duratio : 500 ms
Скриншот c названием фильма Скриншоты
Скачать

Скачать торрент!

Как скачивать? · Что такое торрент? · Рейтинг и ограничения

Сайт не распространяет и не хранит электронные версии произведений, а лишь предоставляет доступ к создаваемому пользователями каталогу ссылок на торрент-файлы, которые содержат только списки хеш-сумм

[Профиль] [ЛС]
Показать сообщения:    
Ответить на тему

Текущее время: Сегодня 02:10

Часовой пояс: GMT + 4



Вы не можете начинать темы
Вы не можете отвечать на сообщения
Вы не можете редактировать свои сообщения
Вы не можете удалять свои сообщения
Вы не можете голосовать в опросах
Вы не можете прикреплять файлы к сообщениям
Вы не можете скачивать файлы