Принцесса на бобах (Виллен Новак) [1997, Россия, Украина, драма, HDTVRip-AVC]

Ответить на тему
 
Автор Сообщение

user ®

Стаж: 7 лет 7 месяцев

Сообщений: 20008

Пост Пост: #1 от 22-Май-2015 18:12

[Цитировать]

Принцесса на бобах
Страна: Россия, Украина
Жанр: драма
Год выпуска: 1997
Продолжительность: 01:46:28
Режиссёр: Виллен Новак
В ролях: Елена Сафонова, Сергей Жигунов, Мамука Кикалейшвили, Антон Бондаренко, Владислав Дружинин, Владислав Галкин, Владимир Конкин, А. Кузьменков, Ульяна Лаптева, Борис Молодан...
Описание: Бизнесмен из «новых русских» Дима Пупков с помощью фиктивного брака решает поменять свою неблагозвучную фамилию на престижную. Его знакомят с… посудомойкой Ниной, которая, как выяснилось, принадлежит к знаменитому роду Шереметьевых.
Она с трудом перебивается на нескольких работах и, как кажется Диме, легко согласится на выгодное предложение, Однако оказалось, что «купить» ее невозможно. Постепенно чувства становятся важнее задуманной сделки.
Полуфарсовая ситуация развивается в историю любви, мелодраму о современной Золушке…
Сэмпл: http://multi-up.com/1049813
Качество видео: HDTVRip-AVC
Формат видео: MKV
Видео: 876x648 (4:3), 25.000 fps, AVC, ~2750 Kbps, 0.194 bits/pixel
Аудио: 48.0 KHz, AC3, 2 ch, 192 Kbps

MediaInfo
General
Unique ID : 220619896868263742227658698271576826134 (0xA5F9D8B8DA2C31BB981FB4D843EC2116)
Complete name : C:\Принцесса на бобах.mkv
Format : Matroska
Format version : Version 4 / Version 2
File size : 2.19 GiB
Duration : 1h 46mn
Overall bit rate : 2 943 Kbps
Encoded date : UTC 2015-02-07 11:05:42
Writing application : mkvmerge v7.5.0 ('Glass Culture') 64bit built on Jan 4 2015 16:48:44
Writing library : libebml v1.3.1 + libmatroska v1.4.2
DURATION : 01:46:27.960000000
NUMBER_OF_FRAMES : 159699
NUMBER_OF_BYTES : 2195645059
_STATISTICS_WRITING_APP : mkvmerge v7.5.0 ('Glass Culture') 64bit built on Jan 4 2015 16:48:44
_STATISTICS_WRITING_DATE_UT : 2015-02-07 11:05:42
_STATISTICS_TAGS : BPS DURATION NUMBER_OF_FRAMES NUMBER_OF_BYTES
Video
ID : 1
Format : AVC
Format/Info : Advanced Video Codec
Format profile : High@L4.0
Format settings, CABAC : Yes
Format settings, ReFrames : 10 frames
Codec ID : V_MPEG4/ISO/AVC
Duration : 1h 46mn
Bit rate : 2 750 Kbps
Width : 876 pixels
Height : 648 pixels
Display aspect ratio : 4:3
Frame rate mode : Constant
Frame rate : 25.000 fps
Color space : YUV
Chroma subsampling : 4:2:0
Bit depth : 8 bits
Scan type : Progressive
Bits/(Pixel*Frame) : 0.194
Stream size : 2.00 GiB (91%)
Writing library : x264 core 144 r2525 40bb568
Encoding settings : cabac=1 / ref=10 / deblock=1:-1:-1 / analyse=0x3:0x133 / me=umh / subme=10 / psy=1 / psy_rd=1.00:0.10 / mixed_ref=1 / me_range=32 / chroma_me=1 / trellis=2 / 8x8dct=1 / cqm=0 / deadzone=21,11 / fast_pskip=0 / chroma_qp_offset=-3 / threads=6 / lookahead_threads=1 / sliced_threads=0 / nr=0 / decimate=1 / interlaced=0 / bluray_compat=0 / constrained_intra=0 / bframes=10 / b_pyramid=2 / b_adapt=2 / b_bias=0 / direct=3 / weightb=1 / open_gop=0 / weightp=2 / keyint=250 / keyint_min=25 / scenecut=40 / intra_refresh=0 / rc_lookahead=50 / rc=2pass / mbtree=1 / bitrate=2750 / ratetol=1.0 / qcomp=0.60 / qpmin=0 / qpmax=69 / qpstep=4 / cplxblur=20.0 / qblur=0.5 / ip_ratio=1.40 / aq=1:1.00
Default : Yes
Forced : No
Audio
ID : 2
Format : AC-3
Format/Info : Audio Coding 3
Mode extension : CM (complete main)
Format settings, Endianness : Big
Codec ID : A_AC3
Duration : 1h 46mn
Bit rate mode : Constant
Bit rate : 192 Kbps
Channel(s) : 2 channels
Channel positions : Front: L R
Sampling rate : 48.0 KHz
Bit depth : 16 bits
Compression mode : Lossy
Stream size : 146 MiB (7%)
Language : Russian
Default : Yes
Forced : No
Скриншоты
Скачать

Скачать торрент!

Как скачивать? · Что такое торрент? · Рейтинг и ограничения

Сайт не распространяет и не хранит электронные версии произведений, а лишь предоставляет доступ к создаваемому пользователями каталогу ссылок на торрент-файлы, которые содержат только списки хеш-сумм

[Профиль] [ЛС]
Показать сообщения:    
Ответить на тему

Текущее время: Сегодня 09:51

Часовой пояс: GMT + 4



Вы не можете начинать темы
Вы не можете отвечать на сообщения
Вы не можете редактировать свои сообщения
Вы не можете удалять свои сообщения
Вы не можете голосовать в опросах
Вы не можете прикреплять файлы к сообщениям
Вы не можете скачивать файлы