Школа Монстров: Призрачно / Monster High: Haunted (Дэн Фрага, Уильям Лау / Dan Fraga, William Lau) [2015,мультфильм, семейный, BDRip] Dub

Ответить на тему
 
Автор Сообщение

user ®

Стаж: 12 лет

Сообщений: 15145

Пост Пост: #1 от 21-Май-2015 20:27

[Цитировать]

Школа Монстров: Призрачно
Monster High: Haunted
Страна: США
Жанр: мультфильм, семейный
Продолжительность: 01:15:43
Год выпуска: 2015-Перевод : Профессиональный (дублированный)
Русские субтитры: нет
Режиссёр: Дэн Фрага, Уильям Лау / Dan Fraga, William Lau-Роли озвучивали: Хэвиланд Стиллвелл, Паула Родс, Синди Робинсон, Америка Янг, Кэм Кларк, Карен Страссман, Эрин Фицджералд, Салли Саффиоти, Лора Бэйли, Тодд Хаберкорн-Описание: Страшно представить, какие захватывающие приключения ждут девочек из Школы монстров в стенах таинственной Школы призраков! Монстряшки под предводительством Спектры Вондергейст случайно попадают в параллельный Мир Духов и их особую школу, которой руководит строгая Директор-Призрак. Она удерживает Спектру среди призраков, не позволяя ей вернуться домой. Пришло время ужасно прекрасным подружкам бросить вызов духам, чтобы спасти одну из них от полного исчезновения!- -Качество: [url=http://***/forum/viewtopic.php?t=5007113]BDRip[/url]
Формат: AVI
Видео: 688x384 (1.79:1), 23.976 fps, XviD 66 ~1 241 kbps avg, 0.20 bit/pixel
Аудио: 48.0 kHz, MPEG Layer 3, 2/0 (L,R) ch, ~128 kbps
Субтитры: отсутствуют


MI
General
Complete name : D:\incarcare\rip gata\Monster.High.Haunted.2015.BDRip.746[dragomire]_rutracker.org.avi
Format : AVI
Format/Info : Audio Video Interleave
File size : 747 MiB
Duration : 1h 15mn
Overall bit rate : 1 378 Kbps
Writing application : VirtualDubMod 1.5.10.2 (build 2540/release)
Writing library : VirtualDubMod build 2540/release
Video
ID : 0
Format : MPEG-4 Visual
Format profile : Advanced Simple@L5
Format settings, BVOP : 1
Format settings, QPel : No
Format settings, GMC : No warppoints
Format settings, Matrix : Custom
Codec ID : XVID
Codec ID/Hint : XviD
Duration : 1h 15mn
Bit rate : 1 241 Kbps
Width : 688 pixels
Height : 384 pixels
Display aspect ratio : 16:9
Frame rate : 23.976 fps
Color space : YUV
Chroma subsampling : 4:2:0
Bit depth : 8 bits
Scan type : Progressive
Compression mode : Lossy
Bits/(Pixel*Frame) : 0.196
Stream size : 672 MiB (90%)
Writing library : XviD 66
Audio
ID : 1
Format : MPEG Audio
Format version : Version 1
Format profile : Layer 3
Codec ID : 55
Codec ID/Hint : MP3
Duration : 1h 15mn
Bit rate mode : Constant
Bit rate : 128 Kbps
Channel(s) : 2 channels
Sampling rate : 48.0 KHz
Compression mode : Lossy
Stream size : 69.3 MiB (9%)
Alignment : Aligned on interleaves
Interleave, duration : 42 ms (1.00 video frame)
Interleave, preload duratio : 504 ms
Скриншоты
Скачать

Скачать торрент! Школа Монстров: Призрачно / Monster High: Haunted (Дэн Фрага, Уильям Лау / Dan Fraga, William Lau) [2015,мультфильм, семейный, BDRip] Dub

Как скачивать? · Что такое торрент? · Рейтинг и ограничения

Сайт не распространяет и не хранит электронные версии произведений, а лишь предоставляет доступ к создаваемому пользователями каталогу ссылок на торрент-файлы, которые содержат только списки хеш-сумм

[Профиль] [ЛС]
Показать сообщения:    
Ответить на тему

Текущее время: Сегодня 22:00

Часовой пояс: GMT + 4



Вы не можете начинать темы
Вы не можете отвечать на сообщения
Вы не можете редактировать свои сообщения
Вы не можете удалять свои сообщения
Вы не можете голосовать в опросах
Вы не можете прикреплять файлы к сообщениям
Вы не можете скачивать файлы