Приключения Паддингтона / Paddington (Пол Кинг / Paul King) [2014, Великобритания, Франция, комедия, приключения, семейный, BDRip 720p] Dub (BD RUS) + Sub Eng + Original Eng

Ответить на тему
 
Автор Сообщение

user ®

Стаж: 7 лет 7 месяцев

Сообщений: 20008

Пост Пост: #1 от 21-Май-2015 17:21

[Цитировать]

Приключения Паддингтона
Paddington
«Пожалуйста, присмотрите за этим медведем. Спасибо»
- Страна: Великобритания, Франция
Жанр: комедия, приключения, семейный
Год выпуска: 2014
Продолжительность: 01:35:12
Перевод: Профессиональный (дублированный) BD RUS
Cубтитры: английские
Оригинальная аудиодорожка: английский
Режиссер: Пол Кинг/Paul King
В ролях: Джеффри Палмер, Тим Дауни, Мадлен Уорролл, Николь Кидман, Лотти Стир, Тереза Уотсон, Имелда Стонтон, Майкл Гэмбон, Бен Уишоу-ОписаниеПознакомьтесь, это медведь по имени Паддингтон из дремучего Перу. Он приехал в Лондон, чтобы обрести семью и стать настоящим английским джентльменом. На пути к этой цели его ожидают невероятные приключения, полные юмора и опасностей.-Сэмпл

IMDb:7,4/10 from 23 499 users
Качество видео: BDRip 720p Paddington.2014.1080p.BluRay.REMUX.AVC.DTS-HD.MA.5.1-RARBG
Формат видео: MKV
Видео: AVC 5496 Kbps 1280 x 536 (2.388) 23.976 fps
Аудио: AC-3 640 Kbps 6 channels, 48.0 KHz Rus DUB BD RUS
Аудио 2: AC-3 640 Kbps 6 channels, 48.0 KHz Eng
Формат субтитров: softsub (SRT)
MediaInfo | Log
Log
x264 [info]: frame I:1345 Avg QP:14.46 size:140345
x264 [info]: frame P:30166 Avg QP:16.36 size: 54386
x264 [info]: frame B:105457 Avg QP:18.09 size: 20782
x264 [info]: consecutive B-frames: 3.1% 2.8% 6.3% 17.7% 20.6% 40.2% 4.9% 1.7% 1.0% 0.8% 0.8%
x264 [info]: mb I I16..4: 13.9% 64.8% 21.2%
x264 [info]: mb P I16..4: 1.1% 16.5% 1.6% P16..4: 22.1% 27.7% 15.7% 3.6% 0.4% skip:11.3%
x264 [info]: mb B I16..4: 0.1% 3.1% 0.2% B16..8: 27.2% 22.4% 6.6% direct: 7.6% skip:32.9% L0:42.4% L1:38.0% BI:19.6%
x264 [info]: 8x8 transform intra:85.2% inter:51.2%
x264 [info]: direct mvs spatial:100.0% temporal:0.0%
x264 [info]: coded y,uvDC,uvAC intra: 95.0% 90.7% 85.8% inter: 32.9% 31.2% 19.4%
x264 [info]: i16 v,h,dc,p: 30% 8% 20% 42%
x264 [info]: i8 v,h,dc,ddl,ddr,vr,hd,vl,hu: 13% 9% 14% 9% 11% 11% 11% 11% 12%
x264 [info]: i4 v,h,dc,ddl,ddr,vr,hd,vl,hu: 16% 10% 8% 8% 13% 12% 12% 10% 11%
x264 [info]: i8c dc,h,v,p: 54% 18% 13% 16%
x264 [info]: Weighted P-Frames: Y:5.9% UV:3.8%
x264 [info]: ref P L0: 43.5% 11.8% 19.0% 6.5% 6.1% 4.0% 4.2% 2.2% 2.4% 0.3% 0.0%
x264 [info]: ref B L0: 68.0% 13.6% 6.7% 4.1% 2.9% 2.7% 1.4% 0.5%
x264 [info]: ref B L1: 92.2% 7.8%
x264 [info]: kb/s:5630.94
x264 [total]: encoded 136968 frames, 7.95 fps, 5630.94 kb/s, duration 4:47:05.17
Format : Matroska
Format version : Version 4 / Version 2
File size : 4.60 GiB
Duration : 1h 35mn
Overall bit rate : 6 913 Kbps
Encoded date : UTC 2015-04-25 19:24:44
Writing application : mkvmerge v6.7.0 ('Back to the Ground') 32bit built on Jan 8 2014 15:03:17
Writing library : libebml v1.3.0 + libmatroska v1.4.1
Video
ID : 1
Format : AVC
Format/Info : Advanced Video Codec
Format profile : High@L4.1
Format settings, CABAC : Yes
Format settings, ReFrames : 9 frames
Codec ID : V_MPEG4/ISO/AVC
Duration : 1h 35mn
Bit rate : 5 496 Kbps
Width : 1 280 pixels
Height : 536 pixels
Display aspect ratio : 2.40:1
Frame rate mode : Constant
Frame rate : 23.976 fps
Color space : YUV
Chroma subsampling : 4:2:0
Bit depth : 8 bits
Scan type : Progressive
Bits/(Pixel*Frame) : 0.334
Stream size : 3.65 GiB (79%)
Title : Paddington 2014 [***] 720p
Writing library : x264 core 146 r2538kMod 121396c
Encoding settings : cabac=1 / ref=9 / deblock=1:-3:-2 / analyse=0x3:0x133 / me=umh / subme=11 / psy=1 / fade_compensate=0.00 / psy_rd=1.00:0.05 / mixed_ref=1 / me_range=32 / chroma_me=1 / trellis=2 / 8x8dct=1 / cqm=0 / deadzone=21,11 / fast_pskip=0 / chroma_qp_offset=-3 / threads=12 / lookahead_threads=3 / sliced_threads=0 / nr=0 / decimate=1 / interlaced=0 / bluray_compat=0 / constrained_intra=0 / fgo=0 / bframes=10 / b_pyramid=2 / b_adapt=2 / b_bias=0 / direct=3 / weightb=1 / open_gop=0 / weightp=2 / keyint=250 / keyint_min=23 / scenecut=40 / intra_refresh=0 / rc_lookahead=80 / rc=crf / mbtree=0 / crf=16.6000 / qcomp=0.60 / qpmin=0 / qpmax=69 / qpstep=4 / vbv_maxrate=50000 / vbv_bufsize=62500 / crf_max=0.0 / nal_hrd=none / filler=0 / ip_ratio=1.40 / pb_ratio=1.30 / aq=3:0.90
Language : English
Default : Yes
Forced : No
Audio #1
ID : 2
Format : AC-3
Format/Info : Audio Coding 3
Mode extension : CM (complete main)
Format settings, Endianness : Big
Codec ID : A_AC3
Duration : 1h 35mn
Bit rate mode : Constant
Bit rate : 640 Kbps
Channel(s) : 6 channels
Channel positions : Front: L C R, Side: L R, LFE
Sampling rate : 48.0 KHz
Bit depth : 16 bits
Compression mode : Lossy
Stream size : 436 MiB (9%)
Title : DUB [BD RUS]
Language : Russian
Default : Yes
Forced : No
Audio #2
ID : 3
Format : AC-3
Format/Info : Audio Coding 3
Mode extension : CM (complete main)
Format settings, Endianness : Big
Codec ID : A_AC3
Duration : 1h 35mn
Bit rate mode : Constant
Bit rate : 640 Kbps
Channel(s) : 6 channels
Channel positions : Front: L C R, Side: L R, LFE
Sampling rate : 48.0 KHz
Bit depth : 16 bits
Compression mode : Lossy
Stream size : 436 MiB (9%)
Title : Original
Language : English
Default : No
Forced : No
Text #1
ID : 4
Format : UTF-8
Codec ID : S_TEXT/UTF8
Codec ID/Info : UTF-8 Plain Text
Title : Full
Language : English
Default : No
Forced : No
Text #2
ID : 5
Format : UTF-8
Codec ID : S_TEXT/UTF8
Codec ID/Info : UTF-8 Plain Text
Title : SDH
Language : English
Default : No
Forced : No
Menu
00:00:00.000 : en:Chapter 01
00:09:26.148 : en:Chapter 02
00:16:45.754 : en:Chapter 03
00:24:45.650 : en:Chapter 04
00:32:44.921 : en:Chapter 05
00:40:31.178 : en:Chapter 06
00:47:55.664 : en:Chapter 07
00:57:52.469 : en:Chapter 08
01:03:24.467 : en:Chapter 09
01:10:31.727 : en:Chapter 10
01:23:49.983 : en:Chapter 11
01:27:39.504 : en:Chapter 12
Скриншоты
Скачать

Скачать торрент!

Как скачивать? · Что такое торрент? · Рейтинг и ограничения

Сайт не распространяет и не хранит электронные версии произведений, а лишь предоставляет доступ к создаваемому пользователями каталогу ссылок на торрент-файлы, которые содержат только списки хеш-сумм

[Профиль] [ЛС]
Показать сообщения:    
Ответить на тему

Текущее время: Сегодня 06:07

Часовой пояс: GMT + 4



Вы не можете начинать темы
Вы не можете отвечать на сообщения
Вы не можете редактировать свои сообщения
Вы не можете удалять свои сообщения
Вы не можете голосовать в опросах
Вы не можете прикреплять файлы к сообщениям
Вы не можете скачивать файлы