Кентервильское привидение (Зинаида Брумберг, Валентина Брумберг) [1970, Рисованный мультфильм, SATRip]

Ответить на тему
 
Автор Сообщение

user ®

Стаж: 7 лет 7 месяцев

Сообщений: 20008

Пост Пост: #1 от 21-Май-2015 05:00

[Цитировать]

Кентервильское привидение
Страна: СССР
Жанр: Рисованный мультфильм
Продолжительность: 00:19:06
Год выпуска: 1970
Русские субтитры: нет
Режиссёр: Зинаида Брумберг, Валентина Брумберг
Роли озвучивали: Владимир Кенигсон (Привидение), Алексей Консовский (Лорд), Рина Зелёная (Экономка), Евгений Весник (Американец), Ирина Карташева (Американка), Клара Румянова (Виргиния), Мария Виноградова и Т. Дмитриева (близнецы)
Описание: По мотивам одноимённой повести О. Уайльда.
Американская семья переезжает в английский особняк, в котором, по легенде, много лет назад муж убил свою жену. По ночам в особняке начинают происходить странные вещи: чьи-то шаги, грохот цепей... И это постоянно появляющееся наутро пятно крови на кухне!..
Доп. информация:
«Союзмультфильм»
сценарист Георгий Мунблит
художники-постановщики: Лана Азарх, Валентин Лалаянц
xудожники: Лидия Модель, Аркадий Шер, София Митрофанова, Е. Танненберг, З. Кредушинская
аниматоры: Е. Вершинина, Фаина Епифанова, Татьяна Померанцева, Виктор Шевков, Владимир Арбеков, Игорь Подгорский
оператор Борис Котов
директор Федор Иванов
композитор Ан. Варламов
звукорежиссёр Георгий Мартынюк
редактор Раиса Фричинская
Релиз группы:
Исходник для рипа любезно представлен SLuMeP
PS: РИП без логотипа канала
Качество: SATRip
Формат: AVI
Видео: 640x480 (1.33:1), 25 fps, XviD MPEG-4 ~2100 kbps avg, 0.27 bit/pixel
Аудио: 48 kHz, AC3 Dolby Digital, 1/0 (C) ch, ~128.00 kbps avg
Субтитры: нет
Подробные технические данные
Format : AVIFormat/Info : Audio Video InterleaveFile size : 306 MiBDuration : 19mn 6sOverall bit rate : 2 238 KbpsWriting application : VirtualDubModRus 1.5.10.2 (build 2542/release)Copyright : Rutracker.orgComment : SATRip by dvdss
VideoID : 0Format : MPEG-4 VisualFormat profile : Advanced Simple@L5Format settings, BVOP : 2Format settings, QPel : NoFormat settings, GMC : No warppointsFormat settings, Matrix : CustomCodec ID : XVIDCodec ID/Hint : XviDDuration : 19mn 6sBit rate : 2 101 KbpsWidth : 640 pixelsHeight : 480 pixelsDisplay aspect ratio : 5:4Original display aspect ratio : 4:3Frame rate : 25.000 fpsColor space : YUVChroma subsampling : 4:2:0Bit depth : 8 bitsScan type : ProgressiveCompression mode : LossyBits/(Pixel*Frame) : 0.274Stream size : 287 MiB (94%)Writing library : XviD 65
AudioID : 1Format : AC-3Format/Info : Audio Coding 3Mode extension : CM (complete main)Format settings, Endianness : BigCodec ID : 2000Duration : 19mn 6sBit rate mode : ConstantBit rate : 128 KbpsChannel(s) : 1 channelChannel positions : Front: CSampling rate : 48.0 KHzBit depth : 16 bitsCompression mode : LossyStream size : 17.5 MiB (6%)Alignment : Split accross interleavesInterleave, duration : 40 ms (1.00 video frame)Interleave, preload duration : 500 ms
сравнение
Сравнение с [url=http://***/forum/viewtopic.php?t=137427]http://***/forum/viewtopic.php?t=137427[/url]
Тут -- http://screenshotcomparison.com/comparison/127920/picture:1
Сравнение с [url=http://***/forum/viewtopic.php?t=2037455]http://***/forum/viewtopic.php?t=2037455[/url]
Тут -- http://screenshotcomparison.com/comparison/127922/picture:1
Скриншоты
Скачать

Скачать торрент!

Как скачивать? · Что такое торрент? · Рейтинг и ограничения

Сайт не распространяет и не хранит электронные версии произведений, а лишь предоставляет доступ к создаваемому пользователями каталогу ссылок на торрент-файлы, которые содержат только списки хеш-сумм

[Профиль] [ЛС]
Показать сообщения:    
Ответить на тему

Текущее время: Сегодня 11:43

Часовой пояс: GMT + 4



Вы не можете начинать темы
Вы не можете отвечать на сообщения
Вы не можете редактировать свои сообщения
Вы не можете удалять свои сообщения
Вы не можете голосовать в опросах
Вы не можете прикреплять файлы к сообщениям
Вы не можете скачивать файлы