Север ада / Дом, милый ад / Home Sweet Hell (Энтони Бернс / Anthony Burns) [2015, США, триллер, комедия, драма, BDRip-AVC] MVO (iTunes) + Original (Eng) + Sub (Rus, Eng)

Ответить на тему
 
Автор Сообщение

user ®

Стаж: 7 лет 7 месяцев

Сообщений: 20008

Пост Пост: #1 от 20-Май-2015 19:42

[Цитировать]

Север ада / Дом, милый ад / Home Sweet Hell
Страна: США
Жанр: триллер, комедия, драма
Год выпуска: 2015
Продолжительность: 01:37:51
Перевод: Профессиональный (многоголосый закадровый) | iTunes
Cубтитры: русские (notabenoid), английские
Оригинальная аудиодорожка: английский
Режиссер: Энтони Бернс / Anthony Burns
В ролях: Кэтрин Хейгл, Патрик Уилсон, Джеймс Белуши, Джордана Брюстер, Кевин МакКидд, Брайс Джонсон, А.Дж. Бакли, Алишия Окс, Эйден Флауэрс, Мэдисон Вульф
Описание: Соблазнительная и интригующая новая сотрудница компании становится проблемой для бизнесмена, который женат на одержимой женщине, пытающейся контролировать все аспекты его жизни...

Исходник: Home Sweet Hell 2015 1080p Blu-ray AVC DTS-HD MA 5.1-PCH
Качество видео: BDRip-AVC | | sample
Формат видео: MKV
Видео кодек: x264
Видео: AVC 1108x472 (2.35:1), 23.976 fps, ~3500 Kbps, 0.28 bit/pixel
Аудио #1: Russian AC3 6ch 48kHz 384Kbps | MVO iTunes
Аудио #2: English AC3 6ch 48kHz 448Kbps | Original
Формат субтитров: softsub (SRT)
Главы: есть

MediaInfo | x264
x264
--[Information] [13.04.2015 9:22:05] x264 [info]: frame I:1213 Avg QP:15.24 size: 98695
--[Information] [13.04.2015 9:22:05] x264 [info]: frame P:27111 Avg QP:17.40 size: 34564
--[Information] [13.04.2015 9:22:05] x264 [info]: frame B:112435 Avg QP:18.12 size: 13515
--[Information] [13.04.2015 9:22:05] x264 [info]: consecutive B-frames: 1.2% 0.8% 3.5% 22.3% 17.4% 36.2% 7.2% 7.5% 1.1% 0.2% 0.3% 0.7% 0.1% 1.7% 0.0%
--[Information] [13.04.2015 9:22:05] x264 [info]: kb/s:3510.69
General
Complete name : E:\...\Home.Sweet.Hell.2015.BDRip.x264.DD5.1.Rus.iTunes.Eng-E76.mkv
Format : Matroska
Format version : Version 2
File size : 2.97 GiB
Duration : 1h 37mn
Overall bit rate : 4 345 Kbps
Movie name : Home.Sweet.Hell.2015.BDRip.x264.DD5.1.Rus.iTunes.Eng-E76
Encoded date : UTC 2015-05-20 10:16:23
Writing application : mkvmerge v7.0.0 ('Where We Going') 64bit built on Jun 9 2014 15:16:27
Writing library : libebml v1.3.0 + libmatroska v1.4.1
Video
ID : 1
Format : AVC
Format/Info : Advanced Video Codec
Format profile : High@L4.1
Format settings, CABAC : Yes
Format settings, ReFrames : 12 frames
Codec ID : V_MPEG4/ISO/AVC
Bit rate : 3 427 Kbps
Width : 1 108 pixels
Height : 472 pixels
Display aspect ratio : 2.35:1
Frame rate mode : Constant
Color space : YUV
Chroma subsampling : 4:2:0
Bit depth : 8 bits
Scan type : Progressive
Title : Home Sweet Hell (2015)
Writing library : x264 core 144 r2525kMod 40bb568
Encoding settings : cabac=1 / ref=12 / deblock=1:-3:-3 / analyse=0x3:0x113 / me=umh / subme=11 / psy=1 / fade_compensate=0.00 / psy_rd=1.10:0.00 / mixed_ref=1 / me_range=48 / chroma_me=1 / trellis=2 / 8x8dct=1 / cqm=0 / deadzone=21,11 / fast_pskip=1 / chroma_qp_offset=-2 / threads=6 / lookahead_threads=1 / sliced_threads=0 / nr=0 / decimate=1 / interlaced=0 / bluray_compat=0 / constrained_intra=0 / fgo=0 / bframes=14 / b_pyramid=2 / b_adapt=2 / b_bias=0 / direct=1 / weightb=1 / open_gop=0 / weightp=2 / keyint=240 / keyint_min=23 / scenecut=40 / intra_refresh=0 / rc_lookahead=0 / rc=crf / mbtree=0 / crf=17.2500 / qcomp=0.65 / qpmin=0 / qpmax=69 / qpstep=4 / vbv_maxrate=62500 / vbv_bufsize=78125 / crf_max=0.0 / nal_hrd=none / filler=0 / ip_ratio=1.40 / pb_ratio=1.20 / aq=1:1.00 / zones=133630,140758,q=30
Language : English
Default : Yes
Forced : No
Matrix coefficients : BT.709
Audio #1
ID : 2
Format : AC-3
Format/Info : Audio Coding 3
Mode extension : CM (complete main)
Format settings, Endianness : Big
Codec ID : A_AC3
Duration : 1h 37mn
Bit rate mode : Constant
Bit rate : 384 Kbps
Channel(s) : 6 channels
Channel positions : Front: L C R, Side: L R, LFE
Sampling rate : 48.0 KHz
Bit depth : 16 bits
Compression mode : Lossy
Stream size : 269 MiB (9%)
Title : MVO iTunes
Language : Russian
Default : Yes
Forced : No
Audio #2
ID : 3
Format : AC-3
Format/Info : Audio Coding 3
Mode extension : CM (complete main)
Format settings, Endianness : Big
Codec ID : A_AC3
Duration : 1h 37mn
Bit rate mode : Constant
Bit rate : 448 Kbps
Channel(s) : 6 channels
Channel positions : Front: L C R, Side: L R, LFE
Sampling rate : 48.0 KHz
Bit depth : 16 bits
Compression mode : Lossy
Stream size : 314 MiB (10%)
Title : Original
Language : English
Default : No
Forced : No
Text #1
ID : 4
Format : UTF-8
Codec ID : S_TEXT/UTF8
Codec ID/Info : UTF-8 Plain Text
Title : notabenoid
Language : Russian
Default : No
Forced : No
Text #2
ID : 5
Format : UTF-8
Codec ID : S_TEXT/UTF8
Codec ID/Info : UTF-8 Plain Text
Title : forced
Language : English
Default : No
Forced : No
Text #3
ID : 6
Format : UTF-8
Codec ID : S_TEXT/UTF8
Codec ID/Info : UTF-8 Plain Text
Language : English
Default : No
Forced : No
Text #4
ID : 7
Format : UTF-8
Codec ID : S_TEXT/UTF8
Codec ID/Info : UTF-8 Plain Text
Title : SDH
Language : English
Default : No
Forced : No
Menu
00:00:00.000 : en:00:00:00.000
00:06:30.098 : en:00:06:30.098
...
01:29:01.211 : en:01:29:01.211
Скриншоты


source vs E76 vs WEB-DL 720p


=> [url=http://***/forum/viewtopic.php?t=866172]Новые релизы в AVC[/url] | | [url=http://***/forum/viewtopic.php?t=3177622]Заказ рипов в AVC[/url]
Скачать

Скачать торрент!

Как скачивать? · Что такое торрент? · Рейтинг и ограничения

Сайт не распространяет и не хранит электронные версии произведений, а лишь предоставляет доступ к создаваемому пользователями каталогу ссылок на торрент-файлы, которые содержат только списки хеш-сумм

[Профиль] [ЛС]
Показать сообщения:    
Ответить на тему

Текущее время: Сегодня 04:03

Часовой пояс: GMT + 4



Вы не можете начинать темы
Вы не можете отвечать на сообщения
Вы не можете редактировать свои сообщения
Вы не можете удалять свои сообщения
Вы не можете голосовать в опросах
Вы не можете прикреплять файлы к сообщениям
Вы не можете скачивать файлы