Отголоски войны / Эхо войны / Echoes of War (Кейн Сенс / Kane Senes) [2015, США, Драма, Триллер, Вестерн, HDRip] VO (Levelin)

Ответить на тему
 
Автор Сообщение

user ®

Стаж: 7 лет 7 месяцев

Сообщений: 20008

Пост Пост: #1 от 20-Май-2015 19:42

[Цитировать]

--Отголоски войны / Эхо войны / Echoes of War-- Страна: США
Жанр: Драма, триллер, вестерн
Год выпуска: 2015
Продолжительность: 1:43:49
Перевод: Одноголосый закадровый (Levelin)
Cубтитры: нет
Оригинальная аудиодорожка: нет-Режиссер: Кейн Сенс / Kane Senes
В ролях: Джеймс Бэдж Дэйл, Итэн Эмбри, Уильям Форсайт, Майка Монро, Риз Уэйкфилд, Бет Бродерик, Райан О’Нан, Оуэн Тиг-Описание: Ветеран гражданской войны возвращается домой в тихую сельскую местность, но оказывается втянут в противостояние с соседями. Недопонимания и обиды начинают перерастать в тотальный конфликт между семьями Райли и МакКласки.-Перевод: [url=http://***/forum/profile.php?mode=viewprofile&u=21131053]Михаил Васильев[/url]
Озвучивал: Семён Ващенко-Сэмпл- -Качество видео: HDRip
Формат видео: AVI
Видео: XVID, 640x352, 16:9, 23.976 fps, 818 Kbps
Аудио: MP3, 48.0 KHz, 128 Kbps, 2 channels-MediaInfo
Format : AVI
Format/Info : Audio Video Interleave
File size : 709 MiB
Duration : 1h 43mn
Overall bit rate : 955 Kbps
Writing library : VirtualDub build 32706/release
Video
ID : 0
Format : MPEG-4 Visual
Format profile : Advanced Simple@L5
Format settings, BVOP : 2
Format settings, QPel : No
Format settings, GMC : No warppoints
Format settings, Matrix : Default (H.263)
Codec ID : XVID
Codec ID/Hint : XviD
Duration : 1h 43mn
Bit rate : 818 Kbps
Width : 640 pixels
Height : 352 pixels
Display aspect ratio : 16:9
Frame rate : 23.976 fps
Color space : YUV
Chroma subsampling : 4:2:0
Bit depth : 8 bits
Scan type : Progressive
Compression mode : Lossy
Bits/(Pixel*Frame) : 0.151
Stream size : 607 MiB (86%)
Writing library : XviD 66
Audio
ID : 1
Format : MPEG Audio
Format version : Version 1
Format profile : Layer 3
Mode : Joint stereo
Mode extension : MS Stereo
Codec ID : 55
Codec ID/Hint : MP3
Duration : 1h 43mn
Bit rate mode : Constant
Bit rate : 128 Kbps
Channel(s) : 2 channels
Sampling rate : 48.0 KHz
Compression mode : Lossy
Stream size : 95.1 MiB (13%)
Alignment : Split accross interleaves
Interleave, duration : 42 ms (1.00 video frame)
Interleave, preload duratio : 500 ms
Скриншот c названием фильма Скриншоты
Скачать

Скачать торрент!

Как скачивать? · Что такое торрент? · Рейтинг и ограничения

Сайт не распространяет и не хранит электронные версии произведений, а лишь предоставляет доступ к создаваемому пользователями каталогу ссылок на торрент-файлы, которые содержат только списки хеш-сумм

[Профиль] [ЛС]
Показать сообщения:    
Ответить на тему

Текущее время: Сегодня 19:25

Часовой пояс: GMT + 4



Вы не можете начинать темы
Вы не можете отвечать на сообщения
Вы не можете редактировать свои сообщения
Вы не можете удалять свои сообщения
Вы не можете голосовать в опросах
Вы не можете прикреплять файлы к сообщениям
Вы не можете скачивать файлы